img image001 image001 image001 image001 image001 image001 image001 image001 image001 image001 image001 image001 image001 image001 image001

Planets Sun Sun Sun
Статистика раздачи
Автор: Nickolas3434 | Размер: 4.46 ГБ | Добавлен: 13 май 2016
Раздают: 16    Качают: 1
Скачать торрент
Скачать торрент
Описание торрента

СообщениеДобавлено: 13 май 2016 


Класс убийц / Assassination Classroom / Ansatsu kyôshitsu
Страна: Япония
Производство: Fuji Television Network Inc., J Storm, Toho Company, Robot, Shueisha
Год выпуска: 2015
Жанр: фантастика, приключения
Продолжительность: 01:49:25
Режиссер: Эйитиро Хасуми
Автор сценария: Тацуя Каназава
В ролях: Окума Анми, Вакана Аои, Шиота Араи, Канна Хасимото, Рику Итикава, Чи-юнг Кенг, Юухи като
Описание: Загадочное существо по имени Коро уничтожило 70% Луны. Также Коро предупреждает, что если его не убьют до марта следующего года, Земля будет следующей уничтоженной планетой. Существо требует, назначить его классным руководителем средней школы «Кунугигаока». Правительство не в силах сказать «нет». В итоге Коро становится классным руководителем 3-го Е класса, в котором учатся хулиганы и бездельники, такие как Нагиса Шиота. Между тем, правительство просит учащихся попытаться убить учителя Коро, хоть он и обладает супер способностями, взамен обещая награду 10 млрд. йен тому, кто его убьет. Студенты удивлены ситуацией, но соглашаются выполнить просьбу. Но, когда Учитель Коро начинает вести у них уроки, ученики понимают, что с новым преподавателем очень весело и интересно...

Перевод: Любительский (многоголосый, закадровый) | Izanami, den904 & DeadSno
Субтитры: русские, английские

Качество: BDRip 720p
Формат: МКV
Видео кодек: AVC
Аудио кодек: АС3
Видео: 1278x534 (2.40:1), 23.976 fps, MPEG-4 AVC ~5 000 kbps avg, 0.306 bit/pixel
Аудио №1: 48.0 kHz, AC3 Dolby Digital, 2 ch, ~192 kbps | RUS
Аудио №2: 48.0 kHz, AC3 Dolby Digital, 6 ch, ~640 kbps | JAP
Формат субтитров: UTF-8 Plain Text
Дата премьеры (мир): 21 марта 2015
Релиз от:
General
Уникальный идентификатор : 198048836398544848398376395156156289943 (0x94FED185BFCAB0ECB8D6C505F9579397)
Полное имя : Assassination.Classroom.2015.BDRip.720p_by_vedigo.mkv
Формат : Matroska
Версия формата : Version 4 / Version 2
Размер файла : 4,46 Гбайт
Продолжительность : 1 ч. 49 м.
Общий поток : 5833 Кбит/сек
Название фильма : Assassination.Classroom.2015.BDRip.720p_by_vedigo
Дата кодирования : UTC 2016-05-13 00:55:48
Программа кодирования : mkvmerge v9.0.1 ('Obstacles') 64bit
Библиотека кодирования : libebml v1.3.3 + libmatroska v1.4.4
Видео
Идентификатор : 1
Формат : AVC
Формат/Информация : Advanced Video Codec
Профиль формата : High@L4.1
Параметр CABAC формата : Да
Параметр ReFrames формата : 12 кадров
Идентификатор кодека : V_MPEG4/ISO/AVC
Продолжительность : 1 ч. 49 м.
Битрейт : 5000 Кбит/сек
Ширина : 1278 пикселей
Высота : 534 пикселя
Соотношение сторон : 2,40:1
Режим частоты кадров : Постоянный
Частота кадров : 23,976 (24000/1001) кадра/сек
Цветовое пространство : YUV
Субдискретизация насыщенности : 4:2:0
Битовая глубина : 8 бит
Тип развёртки : Прогрессивная
Бит/(Пиксели*Кадры) : 0.306
Размер потока : 3,82 Гбайт (86%)
Заголовок : Assassination.Classroom.2015.BDRip.720p_by_vedigo
Библиотека кодирования : x264 core 148 r2692 64f4e24
Настройки программы : cabac=1 / ref=12 / deblock=1:-3:-3 / analyse=0x3:0x133 / me=umh / subme=11 / psy=1 / psy_rd=1.00:0.10 / mixed_ref=1 / me_range=48 / chroma_me=1 / trellis=2 / 8x8dct=1 / cqm=0 / deadzone=21,11 / fast_pskip=0 / chroma_qp_offset=-3 / threads=12 / lookahead_threads=3 / sliced_threads=0 / nr=0 / decimate=1 / interlaced=0 / bluray_compat=0 / constrained_intra=0 / bframes=10 / b_pyramid=2 / b_adapt=2 / b_bias=0 / direct=3 / weightb=1 / open_gop=0 / weightp=2 / keyint=250 / keyint_min=23 / scenecut=40 / intra_refresh=0 / rc_lookahead=40 / rc=2pass / mbtree=0 / bitrate=5000 / ratetol=1.0 / qcomp=0.60 / qpmin=0 / qpmax=69 / qpstep=4 / cplxblur=20.0 / qblur=0.5 / vbv_maxrate=50000 / vbv_bufsize=62500 / nal_hrd=none / filler=0 / ip_ratio=1.40 / pb_ratio=1.30 / aq=1:0.90
Default : Да
Forced : Нет
Аудио #1
Идентификатор : 2
Формат : AC-3
Формат/Информация : Audio Coding 3
Расширение режима : CM (complete main)
Параметр Endianness формата : Big
Идентификатор кодека : A_AC3
Продолжительность : 1 ч. 49 м.
Вид битрейта : Постоянный
Битрейт : 192 Кбит/сек
Каналы : 2 канала
Расположение каналов : Front: L R
Частота : 48,0 КГц
Частота кадров : 31,250 кадров/сек (1536 spf)
Метод сжатия : С потерями
Размер потока : 150 Мбайт (3%)
Заголовок : MVO @ Izanami, DeadSno & Den904
Язык : Russian
Default : Да
Forced : Нет
Аудио #2
Идентификатор : 3
Формат : AC-3
Формат/Информация : Audio Coding 3
Расширение режима : CM (complete main)
Параметр Endianness формата : Big
Идентификатор кодека : A_AC3
Продолжительность : 1 ч. 49 м.
Вид битрейта : Постоянный
Битрейт : 640 Кбит/сек
Каналы : 6 каналов
Расположение каналов : Front: L C R, Side: L R, LFE
Частота : 48,0 КГц
Частота кадров : 31,250 кадров/сек (1536 spf)
Метод сжатия : С потерями
Размер потока : 501 Мбайт (11%)
Заголовок : original
Язык : Japanese
Default : Нет
Forced : Нет
Текст #1
Идентификатор : 4
Формат : UTF-8
Идентификатор кодека : S_TEXT/UTF8
Идентификатор кодека/Информация : UTF-8 Plain Text
Продолжительность : 1 ч. 48 м.
Битрейт : 102 бит/сек
Count of elements : 1716
Размер потока : 81,8 Кбайт (0%)
Заголовок : subtitle rus @ Фансаб-группа "Альянс"
Язык : Russian
Default : Нет
Forced : Нет
Текст #2
Идентификатор : 5
Формат : UTF-8
Идентификатор кодека : S_TEXT/UTF8
Идентификатор кодека/Информация : UTF-8 Plain Text
Продолжительность : 1 ч. 48 м.
Битрейт : 55 бит/сек
Count of elements : 1330
Размер потока : 44,5 Кбайт (0%)
Заголовок : subtitle eng
Язык : English
Default : Нет
Forced : Нет




   Похожие торренты   Торрент   Размер 
В этой теме нет новых непрочитанных сообщений. Класс убийц / Ansatsu kyôshitsu the Movie / Assassination Classroom (2015) HDRip | L

432 | 36

1.41 ГБ

В этой теме нет новых непрочитанных сообщений. Класс убийц / Ansatsu Kyoushitsu / Assassination Classroom [Movie] DVDRip | Persona99

43 | 11

228.91 МБ

В этой теме нет новых непрочитанных сообщений. Класс убийц / Ansatsu kyôshitsu [S01] (2015) HDTVRip 720p | L | CactusTeam

49 | 11

9.33 ГБ

В этой теме нет новых непрочитанных сообщений. Класс убийц / Assassination Classroom (2015) WEB-DLRip | L

155 | 11

1.26 ГБ

В этой теме нет новых непрочитанных сообщений. Класс Убийц / Ansatsu Kyoushitsu (Киси Сэйдзи) [TV-1] [1-22 из 22] [Shina & FruKt] [RAW] [RUS] [2015 г., комедия, школа, HDTVRip] [720p]

232 | 40

8.6 ГБ

В этой теме нет новых непрочитанных сообщений. Класс убийц / Ansatsu Kyoushitsu [TV] [2 из 22] (2015) HDTVRip 720 | Persona99

40 | 3

856.76 МБ

В этой теме нет новых непрочитанных сообщений. Класс убийц / Ansatsu Kyoushitsu [TV] [3 из 22] (2015) HDTVRip 720 | Persona99

48 | 5

1.23 ГБ




Вы не можете начинать темы
Вы не можете отвечать на сообщения
Вы не можете редактировать свои сообщения
Вы не можете удалять свои сообщения
Вы не можете добавлять вложения

Перейти:  
Для Мосгорсуда, Роскомнадзора и рекламодателей: mosgorsud-torrent[собачка]yandex.ru
 Вход
ppkBB3cker v.2 © 2008-2014 @ PPK
[ Time : 0.037s | 15 Queries | GZIP : Off ]

cron