img image001 image001 image001 image001 image001 image001 image001 image001 image001 image001 image001 image001 image001 image001 image001

Planets Sun Sun Sun
Статистика раздачи
Автор: Nickolas3434 | Размер: 8.38 ГБ | Добавлен: 14 май 2016
Раздают: 15    Качают: 2
Скачать торрент
Скачать торрент
Описание торрента

СообщениеДобавлено: 14 май 2016 


Пи Мак из Фра Ханонга / Pee Mak Phrakanong
Страна: Таиланд
Производство: GTH
Год выпуска: 2013
Жанр: ужасы, мелодрама, комедия
Продолжительность: 01:51:52
Режиссер: Баньенг Писензенекун
Авторы сценария: Чантавит Танасеви, Баньенг Писензенекун
В ролях: Марио Морер, Давика Хоорн, Наттапонг Чартпонг, Понгсаторн Джонгвилак, Виват Конграсри, Кантапат Пермпунпатчарасук
Описание: После окончания войны, Мак приглашает своих друзей погостить у него в деревне и познакомиться с его женой. Друзей принимают тепло и радушно, даже дом отдают им для проживания и вообще все хорошо и мило. Но тут начинают происходить странные вещи. Да и про жену Мака по деревне ходят пугающие слухи...

Перевод: Любительский (двухголосый, закадровый) | den904 & DeadSno
Субтитры: русские, английские

Качество: BDRip 1080p
Формат: МКV
Видео кодек: AVC
Аудио кодек: АС3
Видео: 1920x800 (2.40:1), 24.000 fps, MPEG-4 AVC ~9 914 kbps avg, 0.269 bit/pixel
Аудио №1: 48.0 kHz, AC3 Dolby Digital, 2 ch, ~192 kbps | RUS
Аудио №2: 48.0 kHz, AC3 Dolby Digital, 6 ch, ~640 kbps | THAI
Формат субтитров: UTF-8 Plain Text
Дата премьеры (мир): 28 марта 2013
General
Unique ID : 208941414199755941265020601795624609688 (0x9D30A7124CE9FE858F79C3449994A798)
Complete name : Pee.Mak.Phrakanong.2013.1080p.BluRay.x264-WiKi.mkv
Format : Matroska
Format version : Version 4 / Version 2
File size : 8.38 GiB
Duration : 1h 51mn
Overall bit rate : 10.7 Mbps
Movie name : Pee.Mak.Phrakanong.2013.1080p
Encoded date : UTC 2014-09-05 06:53:07
Writing application : mkvmerge v6.8.0 ('Theme for Great Cities') 64bit built on Mar 2 2014 21:34:26
Writing library : libebml v1.3.0 + libmatroska v1.4.1
Video
ID : 1
Format : AVC
Format/Info : Advanced Video Codec
Format profile : High@L4.1
Format settings, CABAC : Yes
Format settings, ReFrames : 5 frames
Codec ID : V_MPEG4/ISO/AVC
Bit rate : 9 914 Kbps
Width : 1 920 pixels
Height : 800 pixels
Display aspect ratio : 2.40:1
Frame rate mode : Variable
Original frame rate : 24.000 fps
Color space : YUV
Chroma subsampling : 4:2:0
Bit depth : 8 bits
Scan type : Progressive
Bits/(Pixel*Frame) : 0.269
Title : RG Orient Extreme Films
Writing library : x264 core 129 r2245+704+36 8e61944 tMod+MixAQ [8-bit@4:2:0 X86_64]
Encoding settings : cabac=1 / ref=5 / deblock=1:-3:-3 / analyse=0x3:0x133 / me=umh / subme=11 / psy=1 / fade_compensate=0.00 / psy_rd=1.05:0.10 / mixed_ref=1 / me_range=32 / chroma_me=1 / trellis=2 / 8x8dct=1 / cqm=0 / deadzone=21,11 / fast_pskip=0 / chroma_qp_offset=-3 / threads=18 / lookahead_threads=3 / sliced_threads=0 / nr=0 / decimate=1 / interlaced=0 / bluray_compat=0 / constrained_intra=0 / fgo=0 / bframes=8 / b_pyramid=2 / b_adapt=2 / b_bias=0 / direct=3 / weightb=1 / open_gop=0 / weightp=2 / keyint=250 / keyint_min=24 / scenecut=40 / intra_refresh=0 / rc_lookahead=50 / rc=2pass / mbtree=1 / bitrate=9914 / ratetol=1.0 / qcomp=0.70 / qpmin=0 / qpmax=69 / qpstep=4 / cplxblur=20.0 / qblur=0.5 / ip_ratio=1.40 / aq=3 / aq-strength=0.90 / aq-sensitivity=10.00 / aq-ifactor=1.00 / aq-pfactor=1.00 / aq-bfactor=1.00 / aq2=0
Language : Thai
Default : Yes
Forced : No
Matrix coefficients : BT.709
Audio #1
ID : 2
Format : AC-3
Format/Info : Audio Coding 3
Mode extension : CM (complete main)
Format settings, Endianness : Big
Codec ID : A_AC3
Duration : 1h 51mn
Bit rate mode : Constant
Bit rate : 192 Kbps
Channel(s) : 2 channels
Channel positions : Front: L R
Sampling rate : 48.0 KHz
Bit depth : 16 bits
Compression mode : Lossy
Stream size : 154 MiB (2%)
Title : DVO (DeadSno & den904) AC3 2.0 @ 192k
Language : Russian
Default : Yes
Forced : No
Audio #2
ID : 3
Format : AC-3
Format/Info : Audio Coding 3
Mode extension : CM (complete main)
Format settings, Endianness : Big
Codec ID : A_AC3
Duration : 1h 51mn
Bit rate mode : Constant
Bit rate : 640 Kbps
Channel(s) : 6 channels
Channel positions : Front: L C R, Side: L R, LFE
Sampling rate : 48.0 KHz
Bit depth : 16 bits
Compression mode : Lossy
Stream size : 512 MiB (6%)
Title : ORG AC3 5.1 @ 640k
Language : Thai
Default : No
Forced : No
Text #1
ID : 4
Format : UTF-8
Codec ID : S_TEXT/UTF8
Codec ID/Info : UTF-8 Plain Text
Language : Russian
Default : No
Forced : No
Text #2
ID : 5
Format : UTF-8
Codec ID : S_TEXT/UTF8
Codec ID/Info : UTF-8 Plain Text
Language : English
Default : No
Forced : No
Menu
00:00:00.000 : en:00:00:00.000
00:09:23.333 : en:00:09:23.333
00:17:13.625 : en:00:17:13.625
00:28:55.166 : en:00:28:55.166
00:38:35.083 : en:00:38:35.083
00:45:19.166 : en:00:45:19.166
00:53:59.916 : en:00:53:59.916
01:05:33.541 : en:01:05:33.541
01:15:16.041 : en:01:15:16.041
01:24:33.875 : en:01:24:33.875
01:31:34.333 : en:01:31:34.333
01:44:10.291 : en:01:44:10.291




   Похожие торренты   Торрент   Размер 
В этой теме нет новых непрочитанных сообщений. Пи Мак из Фра Ханонга / Pee Mak Phrakanong (2013) BDRip 1080p от CINEMANIA | L2

45 | 127

7.64 ГБ

В этой теме нет новых непрочитанных сообщений. Пи Мак из Фра Ханонга / Pee Mak Phrakanong (2013) BDRip 720p | L2

117 | 41

4.52 ГБ

В этой теме нет новых непрочитанных сообщений. Пи Мак из Фра Ханонга / Pee Mak Phrakanong (2013) BDRip 720p от CINEMANIA | L2

26 | 71

6.18 ГБ

В этой теме нет новых непрочитанных сообщений. Пи Мак из Фра Ханонга / Pee Mak Phrakanong (2013) HDRip | L2

569 | 367

1.48 ГБ

В этой теме нет новых непрочитанных сообщений. Пи Мак из Фра Ханонга / Pee Mak Phrakanong (2013) HDRip-AVC от Leo.pard | L2

36 | 20

745.08 МБ

В этой теме нет новых непрочитанных сообщений. Полицейская история 2013 / Police Story 2013 / Jing Cha Gu Shi 2013 (2013) BDRip 1080p от CINEMANIA| L2

330 | 144

8.54 ГБ

В этой теме нет новых непрочитанных сообщений. Игра престолов / Game of Thrones [S01-03] (2011-2013) BDRip 1080p, HDTVRip-AVC 1080p

35 | 23

65.81 ГБ




Вы не можете начинать темы
Вы не можете отвечать на сообщения
Вы не можете редактировать свои сообщения
Вы не можете удалять свои сообщения
Вы не можете добавлять вложения

Перейти:  
Для Мосгорсуда, Роскомнадзора и рекламодателей: mosgorsud-torrent[собачка]yandex.ru
 Вход
ppkBB3cker v.2 © 2008-2014 @ PPK
[ Time : 0.022s | 17 Queries | GZIP : On ]

Торрент трекер RUTOR.IN, Не можете зайти на rutor.org? Какой новый адрес рутор? Какое зеркало рутор? Не работает rutor.org и зеркала? Тогда наш торрент специально для вас. Rutor.in неофициальное зеркало rutor. В случае если у Вас заблокирован rutor или вдруг Вы не можете на него зайти, то Вы без труда сможете скачать бесплатно и без рекламы последние новинки кино, игр, сериалов и прочего у нас, на Rutor.in. Не нужно использовать прокси, чтобы зайти на рутор, достаточно воспользоваться нашим ресурсом. Все новые фильмы, игры, сериалы, книги и музыка за 2013 и 2014 годы через торрент бесплатно. Скачивайте фильмы в хорошем качестве, игры для пк, xbox, playstation без регистрации. У нас вы найдете новые Зарубежные сериалы и Русские сериалы 2013, 2014, 2015 годов. Оставайтесь с нами, качайте любимые фильмы, игры, сериалы, книги и музыку.