img image001 image001 image001 image001 image001 image001 image001 image001 image001 image001 image001 image001 image001 image001 image001

Planets Sun Sun Sun
Статистика раздачи
Автор: Nickolas3434 | Размер: 2.92 ГБ | Добавлен: 14 май 2016
Раздают: 312    Качают: 30
Скачать торрент
Скачать торрент
Описание торрента

СообщениеДобавлено: 14 май 2016 


Информация о фильме
Название: Виктор Франкенштейн
Оригинальное название: Victor Frankenstein
Страна: США
Жанр: ужасы, фантастика, драма
Год выпуска: 2015
Продолжительность: 1:49:49


Перевод: Профессиональный (дублированный) [Лицензия]
Cубтитры: русские
Оригинальная аудиодорожка: английский
Режиссер: Пол МакГиган / Paul McGuigan
В ролях: Дэниэл Рэдклифф, Джессика Браун-Финдли, Бронсон Уэбб, Джеймс МакЭвой, Дэниэл Мейс, Спенсер Уидлинг, Робин Пирс, Эндрю Скотт, Каллум Тернер, Ди Ботчер
Описание: Новый взгляд на фантастическую историю Виктора Франкенштейна, на этот раз — с точки зрения его помощника Игоря.





Раздача от:
Качество видео: BDRip-AVC (источник: HDCLUB / Blu-Ray EUR / 1080р)
Формат видео: MKV
Видео: AVC, 1152*480 (2,40:1), 23,976 к/сек, 2649 Кбит/сек
Аудио 1: русский, 384 Кбит/сек, 48 КГц, 5.1, AC3,
Аудио 2: украинский, 384 Кбит/сек, 48 КГц, 5.1, AC3
Аудио 3: английский, 384 Кбит/сек, 48 КГц, 5.1, AC3
Формат субтитров: softsub (SRT)
Доп. информация о субтитрах: Русские, Украинские, Английские
Общее
Уникальный идентификатор : 193240826527327139651414295580448284072 (0x9160D45570A7D2B5BEA18019F3CE5DA8)
Полное имя : C:UsersШпетНовая папкаВиктор Франкенштейн (Victor Frankenstein) 2015.mkv
Формат : Matroska
Версия формата : Version 4 / Version 2
Размер файла : 2,92 Гбайт
Продолжительность : 1 ч. 49 м.
Общий поток : 3803 Кбит/сек
Дата кодирования : UTC 2016-05-12 17:35:07
Программа кодирования : mkvmerge v6.1.0 ('Old Devil') built on Mar 4 2013 09:10:42
Библиотека кодирования : libebml v1.3.0 + libmatroska v1.4.0
Видео
Идентификатор : 1
Формат : AVC
Формат/Информация : Advanced Video Codec
Профиль формата : High@L3.1
Параметр CABAC формата : Да
Параметр ReFrames формата : 8 кадров
Идентификатор кодека : V_MPEG4/ISO/AVC
Продолжительность : 1 ч. 49 м.
Битрейт : 2649 Кбит/сек
Ширина : 1152 пикселя
Высота : 480 пикселей
Соотношение сторон : 2,40:1
Режим частоты кадров : Постоянный
Частота кадров : 23,976 (24000/1001) кадра/сек
Цветовое пространство : YUV
Субдискретизация насыщенности : 4:2:0
Битовая глубина : 8 бит
Тип развёртки : Прогрессивная
Бит/(Пиксели*Кадры) : 0.200
Размер потока : 1,98 Гбайт (68%)
Библиотека кодирования : x264 core 148 r2638 7599210
Настройки программы : cabac=1 / ref=8 / deblock=1:-1:-1 / analyse=0x3:0x133 / me=umh / subme=9 / psy=1 / psy_rd=1.00:0.15 / mixed_ref=1 / me_range=24 / chroma_me=1 / trellis=2 / 8x8dct=1 / cqm=0 / deadzone=21,11 / fast_pskip=1 / chroma_qp_offset=-3 / threads=6 / lookahead_threads=1 / sliced_threads=0 / nr=0 / decimate=1 / interlaced=0 / bluray_compat=0 / constrained_intra=0 / bframes=3 / b_pyramid=2 / b_adapt=2 / b_bias=0 / direct=3 / weightb=1 / open_gop=0 / weightp=2 / keyint=240 / keyint_min=23 / scenecut=40 / intra_refresh=0 / rc_lookahead=60 / rc=2pass / mbtree=1 / bitrate=2649 / ratetol=1.0 / qcomp=0.60 / qpmin=0 / qpmax=69 / qpstep=4 / cplxblur=20.0 / qblur=0.5 / ip_ratio=1.40 / aq=1:1.00
Default : Да
Forced : Нет
Statistics Tags Issue : mkvmerge v8.5.2 ('Crosses') 32bit 2016-05-12 16:50:28 / mkvmerge v6.1.0 ('Old Devil') built on Mar 4 2013 09:10:42 2016-05-12 17:35:07
FromStats_BitRate : 2648299
FromStats_Duration : 01:49:49.875000000
FromStats_FrameCount : 157999
FromStats_StreamSize : 2181495149
Аудио #1
Идентификатор : 2
Формат : AC-3
Формат/Информация : Audio Coding 3
Расширение режима : CM (complete main)
Параметр Endianness формата : Big
Идентификатор кодека : A_AC3
Продолжительность : 1 ч. 49 м.
Вид битрейта : Постоянный
Битрейт : 384 Кбит/сек
Каналы : 6 каналов
Расположение каналов : Front: L C R, Side: L R, LFE
Частота : 48,0 КГц
Частота кадров : 31,250 кадров/сек (1536 spf)
Метод сжатия : С потерями
Размер потока : 302 Мбайт (10%)
Язык : Russian
Default : Да
Forced : Нет
Аудио #2
Идентификатор : 3
Формат : AC-3
Формат/Информация : Audio Coding 3
Расширение режима : CM (complete main)
Параметр Endianness формата : Big
Идентификатор кодека : A_AC3
Продолжительность : 1 ч. 49 м.
Вид битрейта : Постоянный
Битрейт : 384 Кбит/сек
Каналы : 6 каналов
Расположение каналов : Front: L C R, Side: L R, LFE
Частота : 48,0 КГц
Частота кадров : 31,250 кадров/сек (1536 spf)
Метод сжатия : С потерями
Размер потока : 302 Мбайт (10%)
Язык : Ukrainian
Default : Нет
Forced : Нет
Аудио #3
Идентификатор : 4
Формат : AC-3
Формат/Информация : Audio Coding 3
Расширение режима : CM (complete main)
Параметр Endianness формата : Big
Идентификатор кодека : A_AC3
Продолжительность : 1 ч. 49 м.
Вид битрейта : Постоянный
Битрейт : 384 Кбит/сек
Каналы : 6 каналов
Расположение каналов : Front: L C R, Side: L R, LFE
Частота : 48,0 КГц
Частота кадров : 31,250 кадров/сек (1536 spf)
Метод сжатия : С потерями
Размер потока : 302 Мбайт (10%)
Язык : English
Default : Нет
Forced : Нет
Текст #1
Идентификатор : 5
Формат : UTF-8
Идентификатор кодека : S_TEXT/UTF8
Идентификатор кодека/Информация : UTF-8 Plain Text
Язык : Russian
Default : Да
Forced : Нет
Текст #2
Идентификатор : 6
Формат : UTF-8
Идентификатор кодека : S_TEXT/UTF8
Идентификатор кодека/Информация : UTF-8 Plain Text
Язык : Ukrainian
Default : Нет
Forced : Нет
Текст #3
Идентификатор : 7
Формат : UTF-8
Идентификатор кодека : S_TEXT/UTF8
Идентификатор кодека/Информация : UTF-8 Plain Text
Язык : English
Default : Нет
Forced : Нет





   Похожие торренты   Торрент   Размер 
В этой теме нет новых непрочитанных сообщений. Виктор Франкенштейн / Victor Frankenstein (2015) BDRip 1080p | Лицензия

1096 | 80

7.76 ГБ

В этой теме нет новых непрочитанных сообщений. Виктор Франкенштейн / Victor Frankenstein (2015) BDRip от Twi7ter | Лицензия

7604 | 286

1.46 ГБ

В этой теме нет новых непрочитанных сообщений. Виктор Франкенштейн / Victor Frankenstein (2015) BDRip 720p | Лицензия

763 | 34

7.63 ГБ

В этой теме нет новых непрочитанных сообщений. Виктор Франкенштейн / Victor Frankenstein (2015) BDRip от HQCLUB | D | Лицензия

278 | 21

2.18 ГБ

В этой теме нет новых непрочитанных сообщений. Виктор Франкенштейн / Victor Frankenstein (2015) BDRip 1080p | Лицензия

1256 | 63

13.14 ГБ

В этой теме нет новых непрочитанных сообщений. Виктор Франкенштейн / Victor Frankenstein (2015) Blu-Ray EUR | Лицензия

73 | 21

45.74 ГБ

В этой теме нет новых непрочитанных сообщений. Виктор Франкенштейн / Victor Frankenstein (2015) HDRip | КПК | Лицензия

55 | 12

496.12 МБ




Вы не можете начинать темы
Вы не можете отвечать на сообщения
Вы не можете редактировать свои сообщения
Вы не можете удалять свои сообщения
Вы не можете добавлять вложения

Перейти:  
Для Мосгорсуда, Роскомнадзора и рекламодателей: mosgorsud-torrent[собачка]yandex.ru
 Вход
ppkBB3cker v.2 © 2008-2014 @ PPK
[ Time : 0.598s | 15 Queries | GZIP : Off ]

Торрент трекер RUTOR.IN, Не можете зайти на rutor.org? Какой новый адрес рутор? Какое зеркало рутор? Не работает rutor.org и зеркала? Тогда наш торрент специально для вас. Rutor.in неофициальное зеркало rutor. В случае если у Вас заблокирован rutor или вдруг Вы не можете на него зайти, то Вы без труда сможете скачать бесплатно и без рекламы последние новинки кино, игр, сериалов и прочего у нас, на Rutor.in. Не нужно использовать прокси, чтобы зайти на рутор, достаточно воспользоваться нашим ресурсом. Все новые фильмы, игры, сериалы, книги и музыка за 2013 и 2014 годы через торрент бесплатно. Скачивайте фильмы в хорошем качестве, игры для пк, xbox, playstation без регистрации. У нас вы найдете новые Зарубежные сериалы и Русские сериалы 2013, 2014, 2015 годов. Оставайтесь с нами, качайте любимые фильмы, игры, сериалы, книги и музыку.