img image001 image001 image001 image001 image001 image001 image001 image001 image001 image001 image001 image001 image001 image001 image001

Planets Sun Sun Sun
Статистика раздачи
Автор: Nickolas3434 | Размер: 745.88 МБ | Добавлен: 15 май 2016
Раздают: 320    Качают: 10
Скачать торрент
Скачать торрент
Описание торрента

СообщениеДобавлено: 15 май 2016 

Как поднять миллион. Исповедь Z@drota


Страна: Россия
Жанр: драма
Год выпуска: 2014
Продолжительность: 01:29:23
Перевод: Не требуется (русский)
Cубтитры: нет
Оригинальная аудиодорожка: русский
Режиссер: Клим Шипенко
В ролях: Виктор Грудев, Дмитрий Калязин, Соня Карпунина, Анастасия Акатова, Николай Амосов, Александр Самойленко, Лидия Байрашевская, Михаил Бабичев, Любовь Толкалина, Михаил Довженко, Максим Дрозд, Михаил Ефремов
Описание:
Женя живет в маленьком провинциальном городке. Он просиживает за компьютерами сутками, не отвлекаясь на еду и сон. Однажды Женя выясняет: на виртуальной реальности можно неплохо заработать. Начав с порносайтов, юноша вскоре получает свои первые деньги. Это в корне меняет его жизнь: больше он - не школьный изгой. Вчерашние недруги здороваются первыми, а самые красивые девочки ищут с ним встреч.
Развивая свой бизнес, Женя в итоге оказывается перед выбором: принять законы коррумпированного мира и стать своим в далекой от идеала реальности, или пойти наперерез могущественным структурам, поставив под удар себя и своих близких?
[align=center]

[/align]
Релиз:
Автор рипа: Stalker oK
Сэмпл
Качество видео: WEB-DLRip-AVC [RUTOR / WEB-DL / 1080p]
Формат видео: MKV
Видео кодек: AVC
Аудио кодек: AAC
Видео: 1101 Кбит/сек, 846*354 (2,40:1), в 25,000 кадров/сек, AVC
Аудио: русский, 64,0 Кбит/сек, 48,0 КГц / 24,0 КГц, 2 канала, AAC (HE-AAC / LC)

Общее
Уникальный идентификатор : 228959971216066260689503550165396766426 (0xAC401622723546368E0A538EBFB43EDA)
Полное имя : M:1WEB-DLKak podnjat million. Ispoved ZadrotaKak.podnjat.million.Ispoved.Zadrota.2014.WEB-DLRip-AVC.745Mb.stalkerok.new-team.mkv
Формат : Matroska
Версия формата : Version 4 / Version 2
Размер файла : 746 Мбайт
Продолжительность : 1 ч. 29 м.
Общий поток : 1167 Кбит/сек
Название фильма : Как поднять миллион. Исповедь Z@drota (2014) (New-Team) (Rip by Stalker oK)
Дата кодирования : UTC 2016-05-13 19:28:16
Программа кодирования : mkvmerge v8.6.1 ('Flying') 64bit
Библиотека кодирования : libebml v1.3.3 + libmatroska v1.4.4
Видео
Идентификатор : 1
Формат : AVC
Формат/Информация : Advanced Video Codec
Профиль формата : High@L4.1
Параметр CABAC формата : Да
Параметр ReFrames формата : 16 кадров
Идентификатор кодека : V_MPEG4/ISO/AVC
Продолжительность : 1 ч. 29 м.
Битрейт : 1101 Кбит/сек
Ширина : 846 пикселей
Высота : 354 пикселя
Соотношение сторон : 2,40:1
Режим частоты кадров : Постоянный
Частота кадров : 25,000 кадров/сек
Цветовое пространство : YUV
Субдискретизация насыщенности : 4:2:0
Битовая глубина : 8 бит
Тип развёртки : Прогрессивная
Бит/(Пиксели*Кадры) : 0.147
Размер потока : 704 Мбайт (94%)
Заголовок : Как поднять миллион. Исповедь Z@drota (2014) (New-Team) (Rip by Stalker oK)
Библиотека кодирования : x264 core 148 r2665kMod a01e339
Настройки программы : cabac=1 / ref=16 / deblock=1:-3:-2 / analyse=0x3:0x133 / me=umh / subme=10 / psy=1 / fade_compensate=0.00 / psy_rd=1.00:0.02 / mixed_ref=1 / me_range=32 / chroma_me=1 / trellis=2 / 8x8dct=1 / cqm=0 / deadzone=21,11 / fast_pskip=0 / chroma_qp_offset=-3 / threads=11 / lookahead_threads=2 / sliced_threads=0 / nr=0 / decimate=0 / interlaced=0 / bluray_compat=0 / constrained_intra=0 / fgo=0 / bframes=16 / b_pyramid=2 / b_adapt=2 / b_bias=0 / direct=3 / weightb=1 / open_gop=0 / weightp=2 / keyint=250 / keyint_min=25 / scenecut=40 / intra_refresh=0 / rc_lookahead=60 / rc=2pass / mbtree=0 / bitrate=1101 / ratetol=1.0 / qcomp=0.65 / qpmin=0 / qpmax=69 / qpstep=4 / cplxblur=20.0 / qblur=0.5 / vbv_maxrate=50000 / vbv_bufsize=62500 / nal_hrd=none / filler=0 / ip_ratio=1.40 / pb_ratio=1.30 / aq=1:0.90
Default : Да
Forced : Нет
Аудио
Идентификатор : 2
Формат : AAC
Формат/Информация : Advanced Audio Codec
Профиль формата : HE-AAC / LC
Идентификатор кодека : A_AAC
Продолжительность : 1 ч. 29 м.
Битрейт : 64,0 Кбит/сек
Каналы : 2 канала
Расположение каналов : Front: L R
Частота : 48,0 КГц / 24,0 КГц
Частота кадров : 23,438 кадра/сек (1024 spf)
Метод сжатия : С потерями
Задержка видео : 31 мс.
Размер потока : 40,9 Мбайт (5%)
Язык : Russian
Default : Да
Forced : Нет





   Похожие торренты   Торрент   Размер 
В этой теме нет новых непрочитанных сообщений. Как поднять миллион. Исповедь Z@drota (2014) WEB-DLRip-AVC от New-Team

103 | 6

1.46 ГБ

В этой теме нет новых непрочитанных сообщений. Как поднять миллион. Исповедь Z@drota (2014) WEB-DLRip

2342 | 112

1.37 ГБ

В этой теме нет новых непрочитанных сообщений. Как поднять миллион. Исповедь Z@drota (2014) WEB-DLRip-AVC от ExKinoRay

170 | 9

1.4 ГБ

В этой теме нет новых непрочитанных сообщений. Как поднять миллион. Исповедь Z@drota (2014) WEB-DLRip от MegaPeer

54 | 6

745.68 МБ

В этой теме нет новых непрочитанных сообщений. Как поднять миллион. Исповедь Z@drota (2014) WEB-DLRip от ExKinoRay

244 | 8

1.37 ГБ

В этой теме нет новых непрочитанных сообщений. Как поднять миллион. Исповедь Z@drota (2014) WEB-DL 720p

642 | 23

2.73 ГБ

В этой теме нет новых непрочитанных сообщений. Как поднять миллион. Исповедь Z@drota (2014) WEBRip от GeneralFilm

941 | 12

746.65 МБ




Вы не можете начинать темы
Вы не можете отвечать на сообщения
Вы не можете редактировать свои сообщения
Вы не можете удалять свои сообщения
Вы не можете добавлять вложения

Перейти:  
Для Мосгорсуда, Роскомнадзора и рекламодателей: mosgorsud-torrent[собачка]yandex.ru
 Вход
ppkBB3cker v.2 © 2008-2014 @ PPK
[ Time : 0.028s | 17 Queries | GZIP : On ]

Торрент трекер RUTOR.IN, Не можете зайти на rutor.org? Какой новый адрес рутор? Какое зеркало рутор? Не работает rutor.org и зеркала? Тогда наш торрент специально для вас. Rutor.in неофициальное зеркало rutor. В случае если у Вас заблокирован rutor или вдруг Вы не можете на него зайти, то Вы без труда сможете скачать бесплатно и без рекламы последние новинки кино, игр, сериалов и прочего у нас, на Rutor.in. Не нужно использовать прокси, чтобы зайти на рутор, достаточно воспользоваться нашим ресурсом. Все новые фильмы, игры, сериалы, книги и музыка за 2013 и 2014 годы через торрент бесплатно. Скачивайте фильмы в хорошем качестве, игры для пк, xbox, playstation без регистрации. У нас вы найдете новые Зарубежные сериалы и Русские сериалы 2013, 2014, 2015 годов. Оставайтесь с нами, качайте любимые фильмы, игры, сериалы, книги и музыку.