img image001 image001 image001 image001 image001 image001 image001 image001 image001 image001 image001 image001 image001 image001 image001

Planets Sun Sun Sun
Статистика раздачи
Автор: Nickolas3434 | Размер: 3.7 ГБ | Добавлен: 15 май 2016
Раздают: 36    Качают: 2
Скачать торрент
Скачать торрент
Описание торрента

СообщениеДобавлено: 15 май 2016 


Качели
Страна: Россия
Производство: Красная стрела
Год выпуска: 2008
Жанр: мелодрама
Продолжительность: 01:30:26
Режиссер: Антон Сиверс
Автор сценария: Аркадий Тигай
В ролях: Мария Миронова, Андрей Мерзликин, Ксения Раппопорт, Вячеслав Разбегаев, Борис Хвошнянский, Хельга Филиппова, Максим Бритвенков
Описание: Уходя на работу, он не знает, вернётся ли домой. Потому что рисковать жизнью — его профессия. Но иногда смертельное ранение может нанести любовь, потому что любовь, как пуля, бьет прямо в сердце. Вся жизнь героев этой ленты — Качели. То, задыхаясь от любви, они взлетают в облака, то с самого пика наслажденья падают вниз, в грязь и пустоту… Качели раскачиваются всё сильнее, и остановить их они попытаются лишь тогда, когда это почти невозможно...

Перевод: не требуется | оригинал (русский)
Субтитры: нет

Качество: BDRip 720p
Формат: МКV
Видео кодек: AVC
Аудио кодек: АС3
Видео: 1280x544 (2.35:1), 23,976 fps, MPEG-4 AVC ~5 415 kbps avg, 0.324 bit/pixel
Аудио: 48.0 kHz, AC3 Dolby Digital, 3/2 (L,C,R,l,r) + LFE ch, ~448 kbps
Дата премьеры (РФ): 14 февраля 2008, «Каскад»
General
Уникальный идентификатор : 201675326861575520688563190750605633486 (0x97B9414E8A4E1D96B03C558F6F6267CE)
Полное имя : Kacheli.2008.720p.BluRay.Rus.mkv
Формат : Matroska
Версия формата : Version 4 / Version 2
Размер файла : 3,70 Гбайт
Продолжительность : 1 ч. 30 м.
Общий поток : 5865 Кбит/сек
Название фильма : Kacheli (2008)
Дата кодирования : UTC 2015-10-21 05:41:18
Программа кодирования : mkvmerge v7.7.0 ('Six Voices') 32bit built on Feb 28 2015 23:23:00
Библиотека кодирования : libebml v1.3.1 + libmatroska v1.4.2
DURATION : 01:30:26.592000000
NUMBER_OF_FRAMES : 169581
NUMBER_OF_BYTES : 303889152
_STATISTICS_WRITING_APP : mkvmerge v7.7.0 ('Six Voices') 32bit built on Feb 28 2015 23:23:00
_STATISTICS_WRITING_DATE_UTC : 2015-10-21 05:41:18
_STATISTICS_TAGS : BPS DURATION NUMBER_OF_FRAMES NUMBER_OF_BYTES
Видео
Идентификатор : 1
Формат : AVC
Формат/Информация : Advanced Video Codec
Профиль формата : High@L4.1
Параметр CABAC формата : Да
Параметр ReFrames формата : 6 кадров
Идентификатор кодека : V_MPEG4/ISO/AVC
Продолжительность : 1 ч. 30 м.
Битрейт : 5415 Кбит/сек
Ширина : 1280 пикселей
Высота : 544 пикселя
Соотношение сторон : 2,35:1
Режим частоты кадров : Постоянный
Частота кадров : 23,976 кадра/сек
Цветовое пространство : YUV
Субдискретизация насыщенности : 4:2:0
Битовая глубина : 8 бит
Тип развёртки : Прогрессивная
Бит/(Пиксели*Кадры) : 0.324
Размер потока : 3,35 Гбайт (90%)
Заголовок : Release for HDCLUB
Библиотека кодирования : x264 core 67 r1173M f6d3166
Настройки программы : cabac=1 / ref=6 / deblock=1:-3:-3 / analyse=0x3:0x113 / me=umh / subme=9 / psy_rd=1.0:0.0 / mixed_ref=1 / me_range=24 / chroma_me=1 / trellis=2 / 8x8dct=1 / cqm=0 / deadzone=21,11 / chroma_qp_offset=-2 / threads=12 / nr=0 / decimate=0 / mbaff=0 / bframes=3 / b_pyramid=0 / b_adapt=2 / b_bias=0 / direct=3 / wpredb=1 / keyint=250 / keyint_min=25 / scenecut=40 / rc=2pass / bitrate=5415 / ratetol=1.0 / qcomp=0.60 / qpmin=10 / qpmax=51 / qpstep=4 / cplxblur=20.0 / qblur=0.5 / vbv_maxrate=50000 / vbv_bufsize=50000 / ip_ratio=1.40 / pb_ratio=1.30 / aq=1:0.80
Язык : English
Default : Да
Forced : Нет
DURATION : 01:30:26.597000000
NUMBER_OF_FRAMES : 130108
NUMBER_OF_BYTES : 3672901232
_STATISTICS_WRITING_APP : mkvmerge v7.7.0 ('Six Voices') 32bit built on Feb 28 2015 23:23:00
_STATISTICS_WRITING_DATE_UTC : 2015-10-21 05:41:18
_STATISTICS_TAGS : BPS DURATION NUMBER_OF_FRAMES NUMBER_OF_BYTES
Аудио
Идентификатор : 2
Формат : AC-3
Формат/Информация : Audio Coding 3
Расширение режима : CM (complete main)
Параметр Endianness формата : Big
Идентификатор кодека : A_AC3
Продолжительность : 1 ч. 30 м.
Вид битрейта : Постоянный
Битрейт : 448 Кбит/сек
Каналы : 6 каналов
Расположение каналов : Front: L C R, Side: L R, LFE
Частота : 48,0 КГц
Метод сжатия : С потерями
Размер потока : 290 Мбайт (8%)
Default : Да
Forced : Нет




   Похожие торренты   Торрент   Размер 
В этой теме нет новых непрочитанных сообщений. Качели (2008) BDRip 720p от NOLIMITS-TEAM

1 | 2

2.16 ГБ

В этой теме нет новых непрочитанных сообщений. Качели (2008) BDRip-AVC

15 | 2

744.36 МБ

В этой теме нет новых непрочитанных сообщений. Качели (2008) BDRip-AVC

111 | 12

2.18 ГБ

В этой теме нет новых непрочитанных сообщений. Качели (2008) BDRip 1080p

38 | 7

4.36 ГБ

В этой теме нет новых непрочитанных сообщений. Качели (2008) BDRip от Scarabey

14 | 3

741.65 МБ

В этой теме нет новых непрочитанных сообщений. Качели (2008) BDRip от HQ-ViDEO

199 | 9

1.46 ГБ

В этой теме нет новых непрочитанных сообщений. Качели (2008) BDRip от HELLYWOOD

8 | 2

1.45 ГБ




Вы не можете начинать темы
Вы не можете отвечать на сообщения
Вы не можете редактировать свои сообщения
Вы не можете удалять свои сообщения
Вы не можете добавлять вложения

Перейти:  
Для Мосгорсуда, Роскомнадзора и рекламодателей: mosgorsud-torrent[собачка]yandex.ru
 Вход
ppkBB3cker v.2 © 2008-2014 @ PPK
[ Time : 0.081s | 14 Queries | GZIP : Off ]

Торрент трекер RUTOR.IN, Не можете зайти на rutor.org? Какой новый адрес рутор? Какое зеркало рутор? Не работает rutor.org и зеркала? Тогда наш торрент специально для вас. Rutor.in неофициальное зеркало rutor. В случае если у Вас заблокирован rutor или вдруг Вы не можете на него зайти, то Вы без труда сможете скачать бесплатно и без рекламы последние новинки кино, игр, сериалов и прочего у нас, на Rutor.in. Не нужно использовать прокси, чтобы зайти на рутор, достаточно воспользоваться нашим ресурсом. Все новые фильмы, игры, сериалы, книги и музыка за 2013 и 2014 годы через торрент бесплатно. Скачивайте фильмы в хорошем качестве, игры для пк, xbox, playstation без регистрации. У нас вы найдете новые Зарубежные сериалы и Русские сериалы 2013, 2014, 2015 годов. Оставайтесь с нами, качайте любимые фильмы, игры, сериалы, книги и музыку.