img image001 image001 image001 image001 image001 image001 image001 image001 image001 image001 image001 image001 image001 image001 image001

Planets Sun Sun Sun
Статистика раздачи
Автор: Nickolas3434 | Размер: 1.46 ГБ | Добавлен: 15 май 2016
Раздают: 229    Качают: 14
Скачать торрент
Скачать торрент
Описание торрента

СообщениеДобавлено: 15 май 2016 

Хани мани
Honey Money
«искал я сны во снах своих...»


Страна: Россия, Армения
Жанр: комедия, приключения, семейный
Год выпуска: 2015
Продолжительность: 01:20:15
Перевод: Не требуется (русский)
Cубтитры: нет
Оригинальная аудиодорожка: русский
Режиссер: Арсен Агаджанян, Сурен Шахвердян, Артем Багдасарян
В ролях: Айк Саргсян, Йонас Версецкас, Микаел Погосян, Давид Тадевосян, Арташес Алексаняан, Луиза Гамбарян
Описание:
Вилену Апресяну, заместителю главы Центрального банка, грозит увольнение, если через два дня прибывающий в страну руководитель международной кредитной организации не подпишет договор на выделение 50-миллионного транша. Ситуация безнадежная, и Вилена может спасти только чудо.

Релиз:
Автор рипа: Stalker oK
Сэмпл
Качество видео: WEB-DLRip-AVC [BLUEBIRD / WEB-DL / 1080p]
Формат видео: MKV
Видео кодек: AVC
Аудио кодек: AC3
Видео: 2216 Кбит/сек, 896x504 (16:9), 25 кадр/сек, AVC
Аудио: русский, 384 Кбит/сек, 48 КГц, 16 бит, 5.1, AC3 [iTunes]
Навигация по главам: есть

Общее
Уникальный идентификатор : 243113551763512380422094261197365964560 (0xB6E5F78840245F538CEF4F7EDD71EF10)
Полное имя : M:1WEB-DLHoney MoneyHoney.Money.2015.WEB-DLRip-AVC.1.45Gb.stalkerok.new-team.mkv
Формат : Matroska
Версия формата : Version 4 / Version 2
Размер файла : 1,46 Гбайт
Продолжительность : 1 ч. 20 м.
Общий поток : 2601 Кбит/сек
Название фильма : Honey Money (2015) (New-Team) (Rip by Stalker oK)
Дата кодирования : UTC 2016-05-14 10:11:35
Программа кодирования : mkvmerge v8.6.1 ('Flying') 64bit
Библиотека кодирования : libebml v1.3.3 + libmatroska v1.4.4
Видео
Идентификатор : 1
Формат : AVC
Формат/Информация : Advanced Video Codec
Профиль формата : High@L4.1
Параметр CABAC формата : Да
Параметр ReFrames формата : 13 кадров
Идентификатор кодека : V_MPEG4/ISO/AVC
Продолжительность : 1 ч. 20 м.
Битрейт : 2216 Кбит/сек
Ширина : 896 пикселей
Высота : 504 пикселя
Соотношение сторон : 16:9
Режим частоты кадров : Постоянный
Частота кадров : 25,000 кадров/сек
Цветовое пространство : YUV
Субдискретизация насыщенности : 4:2:0
Битовая глубина : 8 бит
Тип развёртки : Прогрессивная
Бит/(Пиксели*Кадры) : 0.196
Размер потока : 1,24 Гбайт (85%)
Заголовок : Honey Money (2015) (New-Team) (Rip by Stalker oK)
Библиотека кодирования : x264 core 148 r2665kMod a01e339
Настройки программы : cabac=1 / ref=13 / deblock=1:-3:-2 / analyse=0x3:0x133 / me=umh / subme=10 / psy=1 / fade_compensate=0.00 / psy_rd=1.00:0.02 / mixed_ref=1 / me_range=32 / chroma_me=1 / trellis=2 / 8x8dct=1 / cqm=0 / deadzone=21,11 / fast_pskip=0 / chroma_qp_offset=-3 / threads=12 / lookahead_threads=3 / sliced_threads=0 / nr=0 / decimate=0 / interlaced=0 / bluray_compat=0 / constrained_intra=0 / fgo=0 / bframes=13 / b_pyramid=2 / b_adapt=2 / b_bias=0 / direct=3 / weightb=1 / open_gop=0 / weightp=2 / keyint=250 / keyint_min=25 / scenecut=40 / intra_refresh=0 / rc_lookahead=60 / rc=2pass / mbtree=0 / bitrate=2216 / ratetol=1.0 / qcomp=0.65 / qpmin=0 / qpmax=69 / qpstep=4 / cplxblur=20.0 / qblur=0.5 / vbv_maxrate=50000 / vbv_bufsize=62500 / nal_hrd=none / filler=0 / ip_ratio=1.40 / pb_ratio=1.30 / aq=1:0.85
Default : Да
Forced : Нет
Аудио
Идентификатор : 2
Формат : AC-3
Формат/Информация : Audio Coding 3
Расширение режима : CM (complete main)
Параметр Endianness формата : Big
Идентификатор кодека : A_AC3
Продолжительность : 1 ч. 20 м.
Вид битрейта : Постоянный
Битрейт : 384 Кбит/сек
Каналы : 6 каналов
Расположение каналов : Front: L C R, Side: L R, LFE
Частота : 48,0 КГц
Частота кадров : 31,250 кадров/сек (1536 spf)
Метод сжатия : С потерями
Размер потока : 220 Мбайт (15%)
Заголовок : DD 5.1 @ 384 kbps iTunes
Язык : Russian
Default : Да
Forced : Нет
Меню
00:00:00.000 : en:Глава 1
00:06:48.360 : en:Глава 2
00:12:30.600 : en:Глава 3
00:17:41.880 : en:Глава 4
00:22:03.520 : en:Глава 5
00:28:29.120 : en:Глава 6
00:32:55.960 : en:Глава 7
00:42:56.160 : en:Глава 8
00:48:08.080 : en:Глава 9
00:52:36.600 : en:Глава 10
00:57:49.680 : en:Глава 11
01:01:18.440 : en:Глава 12
01:06:21.720 : en:Глава 13
01:13:38.920 : en:Глава 14





   Похожие торренты   Торрент   Размер 
В этой теме нет новых непрочитанных сообщений. Хани мани / Honey Money (2015) WEB-DLRip-AVC от New-Team | iTunes

168 | 9

746.51 МБ

В этой теме нет новых непрочитанных сообщений. Хани мани / Honey Money (2015) WEB-DLRip | iTunes

946 | 49

1.37 ГБ

В этой теме нет новых непрочитанных сообщений. Хани мани / Honey Money (2015) WEB-DLRip от MegaPeer | iTunes

169 | 6

746.14 МБ

В этой теме нет новых непрочитанных сообщений. Хани мани / Honey Money (2015) WEB-DL 720p | iTunes

2961 | 195

2.72 ГБ

В этой теме нет новых непрочитанных сообщений. Милашка Хани / Cutie Honey (2004) DVDRip | L1

0 | 1

1.33 ГБ

В этой теме нет новых непрочитанных сообщений. Деньги решают все / Money Hai Toh Honey Hai (2008) DVDRip

1 | 3

1.37 ГБ

В этой теме нет новых непрочитанных сообщений. Деньги решают всё! / Money Hai Toh Honey Hai (2008) DVDRip | Р

25 | 8

1.37 ГБ




Вы не можете начинать темы
Вы не можете отвечать на сообщения
Вы не можете редактировать свои сообщения
Вы не можете удалять свои сообщения
Вы не можете добавлять вложения

Перейти:  
Для Мосгорсуда, Роскомнадзора и рекламодателей: mosgorsud-torrent[собачка]yandex.ru
 Вход
ppkBB3cker v.2 © 2008-2014 @ PPK
[ Time : 0.030s | 15 Queries | GZIP : Off ]

Торрент трекер RUTOR.IN, Не можете зайти на rutor.org? Какой новый адрес рутор? Какое зеркало рутор? Не работает rutor.org и зеркала? Тогда наш торрент специально для вас. Rutor.in неофициальное зеркало rutor. В случае если у Вас заблокирован rutor или вдруг Вы не можете на него зайти, то Вы без труда сможете скачать бесплатно и без рекламы последние новинки кино, игр, сериалов и прочего у нас, на Rutor.in. Не нужно использовать прокси, чтобы зайти на рутор, достаточно воспользоваться нашим ресурсом. Все новые фильмы, игры, сериалы, книги и музыка за 2013 и 2014 годы через торрент бесплатно. Скачивайте фильмы в хорошем качестве, игры для пк, xbox, playstation без регистрации. У нас вы найдете новые Зарубежные сериалы и Русские сериалы 2013, 2014, 2015 годов. Оставайтесь с нами, качайте любимые фильмы, игры, сериалы, книги и музыку.