img image001 image001 image001 image001 image001 image001 image001 image001 image001 image001 image001 image001 image001 image001 image001

Planets Sun Sun Sun
Статистика раздачи
Автор: Nickolas3434 | Размер: 745.63 МБ | Добавлен: 15 май 2016
Раздают: 33    Качают: 1
Скачать торрент
Скачать торрент
Описание торрента

СообщениеДобавлено: 15 май 2016 

Братья Ч


Страна: Россия
Жанр: драма
Год выпуска: 2014
Продолжительность: 01:41:20
Перевод: Не требуется (русский)
Cубтитры: нет
Оригинальная аудиодорожка: русский
Режиссер: Михаил Угаров
В ролях: Егор Корешков, Артем Григорьев, Александр Молочников, Александра Ребенок, Яна Иртеньева, Сергей Греков, Роман Синицын, Татьяна Чепелевич
Описание:
В основе сюжета фильма - события одного летнего дня из жизни семьи Чеховых на даче в середине 80-х годов 19 века. 26-летний Антон самоотверженно, с трудом содержит большую и неблагополучную семью: разорившегося отца, болезненную мать, сестру, старших и младших братьев.
С утра до вечера он занят поденной литературной работой - пишет короткие комические рассказы в дешевые журналы. Антон Чехов, будущий великий писатель, в фильме только осознает собственный дар.
Рядом с Антоном его старшие братья - Николай, талантливый художник, так и не написавший своего живописного шедевра, и Александр, ближайший друг и отчаянный завистник Антона, одаренный писатель, «профукавший» свой талант.

Релиз:
Автор рипа: Stalker oK
Сэмпл
Качество видео: HDTVRip-AVC [HDTV / 1080i]
Формат видео: MKV
Видео кодек: AVC
Аудио кодек: AAC
Видео: 963 Кбит/сек, 704*396 (16:9), в 25,000 кадров/сек, AVC
Аудио: русский, 64,0 Кбит/сек, 48,0 КГц / 24,0 КГц, 2 канала, AAC (HE-AAC / LC)

Общее
Уникальный идентификатор : 172809506726984301038409044883628849289 (0x8201E67E84E56E45844ED8F26CDB7889)
Полное имя : M:1WEB-DLBratja ChBratja.CH.2014.HDTVRip-AVC.745Mb.stalkerok.new-team.mkv
Формат : Matroska
Версия формата : Version 4 / Version 2
Размер файла : 746 Мбайт
Продолжительность : 1 ч. 41 м.
Общий поток : 1029 Кбит/сек
Название фильма : Братья Ч (2014) (New-Team) (Rip by Stalker oK)
Дата кодирования : UTC 2016-05-14 18:31:37
Программа кодирования : mkvmerge v8.6.1 ('Flying') 64bit
Библиотека кодирования : libebml v1.3.3 + libmatroska v1.4.4
Видео
Идентификатор : 1
Формат : AVC
Формат/Информация : Advanced Video Codec
Профиль формата : High@L4.1
Параметр CABAC формата : Да
Параметр ReFrames формата : 16 кадров
Идентификатор кодека : V_MPEG4/ISO/AVC
Продолжительность : 1 ч. 41 м.
Битрейт : 963 Кбит/сек
Ширина : 704 пикселя
Высота : 396 пикселей
Соотношение сторон : 16:9
Режим частоты кадров : Постоянный
Частота кадров : 25,000 кадров/сек
Цветовое пространство : YUV
Субдискретизация насыщенности : 4:2:0
Битовая глубина : 8 бит
Тип развёртки : Прогрессивная
Бит/(Пиксели*Кадры) : 0.138
Размер потока : 698 Мбайт (94%)
Заголовок : Братья Ч (2014) (New-Team) (Rip by Stalker oK)
Библиотека кодирования : x264 core 148 r2665kMod a01e339
Настройки программы : cabac=1 / ref=16 / deblock=1:-3:-2 / analyse=0x3:0x133 / me=umh / subme=10 / psy=1 / fade_compensate=0.00 / psy_rd=1.00:0.02 / mixed_ref=1 / me_range=32 / chroma_me=1 / trellis=2 / 8x8dct=1 / cqm=0 / deadzone=21,11 / fast_pskip=0 / chroma_qp_offset=-3 / threads=12 / lookahead_threads=3 / sliced_threads=0 / nr=0 / decimate=0 / interlaced=0 / bluray_compat=0 / constrained_intra=0 / fgo=0 / bframes=16 / b_pyramid=2 / b_adapt=2 / b_bias=0 / direct=3 / weightb=1 / open_gop=0 / weightp=2 / keyint=250 / keyint_min=25 / scenecut=40 / intra_refresh=0 / rc_lookahead=60 / rc=2pass / mbtree=0 / bitrate=963 / ratetol=1.0 / qcomp=0.65 / qpmin=0 / qpmax=69 / qpstep=4 / cplxblur=20.0 / qblur=0.5 / vbv_maxrate=50000 / vbv_bufsize=62500 / nal_hrd=none / filler=0 / ip_ratio=1.40 / pb_ratio=1.30 / aq=1:0.95
Default : Да
Forced : Нет
Аудио
Идентификатор : 2
Формат : AAC
Формат/Информация : Advanced Audio Codec
Профиль формата : HE-AAC / LC
Идентификатор кодека : A_AAC
Продолжительность : 1 ч. 41 м.
Битрейт : 64,0 Кбит/сек
Каналы : 2 канала
Расположение каналов : Front: L R
Частота : 48,0 КГц / 24,0 КГц
Частота кадров : 23,438 кадра/сек (1024 spf)
Метод сжатия : С потерями
Задержка видео : 31 мс.
Размер потока : 46,4 Мбайт (6%)
Язык : Russian
Default : Да
Forced : Нет





   Похожие торренты   Торрент   Размер 
В этой теме нет новых непрочитанных сообщений. Братья Ч (2015) HDTVRip-AVC от New-Team

36 | 2

1.46 ГБ

В этой теме нет новых непрочитанных сообщений. Братья Ч (2015) HDTVRip-AVC от Files-x

1 | 2

1.37 ГБ

В этой теме нет новых непрочитанных сообщений. Братья Ч (2015) HDTVRip от Portablius

17 | 2

747.35 МБ

В этой теме нет новых непрочитанных сообщений. Братья Ч (2015) HDTVRip от Files-x

110 | 6

1.37 ГБ

В этой теме нет новых непрочитанных сообщений. Братья по обмену [01-10 из 10] (2013) DVDRip от New-Team | лицензия

323 | 128

6.68 ГБ

В этой теме нет новых непрочитанных сообщений. Братья по обмену [01-10 из 10] (2013) DVDRip-AVC от New-Team | лицензия

179 | 146

6.67 ГБ

В этой теме нет новых непрочитанных сообщений. Братья по обмену [01-10 из 10] (2013) 2xDVD9 R5 от New-Team | лицензия

19 | 31

14.29 ГБ




Вы не можете начинать темы
Вы не можете отвечать на сообщения
Вы не можете редактировать свои сообщения
Вы не можете удалять свои сообщения
Вы не можете добавлять вложения

Перейти:  
Для Мосгорсуда, Роскомнадзора и рекламодателей: mosgorsud-torrent[собачка]yandex.ru
 Вход
ppkBB3cker v.2 © 2008-2014 @ PPK
[ Time : 0.040s | 17 Queries | GZIP : Off ]

cron