img image001 image001 image001 image001 image001 image001 image001 image001 image001 image001 image001 image001 image001 image001 image001

Planets Sun Sun Sun
Статистика раздачи
Автор: Nickolas3434 | Размер: 1.45 ГБ | Добавлен: 16 май 2016
Раздают: 34    Качают: 5
Скачать торрент
Скачать торрент
Описание торрента

СообщениеДобавлено: 16 май 2016 


Информация о фильме
Название: Рейнджер из атомной зоны
Год выхода: 1999
Жанр: боевик, приключения
Режиссер: Вячеслав Никифоров
В ролях: Алексей Кравченко, Татьяна Черкасова, Владимир Самойлов, Сергей Маховиков, Александр Березень, Александр Беспалый, Ольга Нефёдова, Михаил Петров, Анжела Кораблёва, Олег Белоусов, Рада Никифорова, Валя Никифоров, Марина Кирьянова, Федя Перерва, Динара Богданович, Эльмира Богданович, Светлана Дурдыева, Валерий Баташов, Олег Кукрак
О фильме:
Капитан второго ранга Алексей Барсук, попав под сокращение, приезжает в родную деревню, занимает пост отца, лесничего в Чернобыльской зоне, и начинает борьбу с местной мафией.

Доп. информация:
Сценарист: Валентин Черных
Оператор: Олег Мартынов
Композитор: Игорь Кантюков
Художники: Павел Илышев, Владимир Ковалёв
Продюсер: Владимир Досталь
Запись потока *.ts с наземного цифрового телеканала "Беларусь 3", ремукс в *.mkv программой VideoReDo.
При воспроизведении всего фильма есть полупрозрачная полоса справа, а так же во время показа титров происходит трансляция анонса - оба случая хорошо видны на скринах.
Благодарность: за оказанную помощь с недостающим материалом Bartimeyse.
Страна: Россия , Республика Беларусь
Студия: ЗАО "Киномост", Министерство культуры и печати РБ
Продолжительность: 01:22:45
Перевод: не требует
Файл
Кодек: AVC (H264)
Качество: DVB
Видео: AVC (H264), 720x576 (4:3), 25 fps, 2 206 Kbps
Звук: MP2, 256 kbps, 2 channels, 48 kHz
Семпл
Код:
General
Unique ID                      : 326874189584072073842995514069323315492 (0xF5E9ADD16B373C8D89FB715259737924)
Complete name                  : D:Новая  земля 2Художественные фильмыРейнджер из атомной зоны (1999)Рейнджер из атомной зоны (1999).mkv
Format                         : Matroska
Format version                 : Version 2
File size                      : 1.45 GiB
Duration                       : 1h 22mn
Overall bit rate               : 2 512 Kbps
Writing application            : Lavf52.64.2
Writing library                : Lavf52.64.2
Video
ID                             : 1
Format                         : AVC
Format/Info                    : Advanced Video Codec
Format profile                 : Main@L3.0
Format settings, CABAC         : Yes
Format settings, ReFrames      : 4 frames
Format settings, GOP           : M=4, N=24
Codec ID                       : V_MPEG4/ISO/AVC
Duration                       : 1h 22mn
Bit rate                       : 2 206 Kbps
Width                          : 720 pixels
Height                         : 576 pixels
Display aspect ratio           : 4:3
Original display aspect ratio  : 4:3
Frame rate mode                : Constant
Frame rate                     : 25.000 fps
Standard                       : PAL
Color space                    : YUV
Chroma subsampling             : 4:2:0
Bit depth                      : 8 bits
Scan type                      : MBAFF
Scan order                     : Top Field First
Bits/(Pixel*Frame)             : 0.213
Stream size                    : 1.28 GiB (88%)
Default                        : Yes
Forced                         : No
Color primaries                : BT.601 PAL
Transfer characteristics       : BT.470 System B, BT.470 System G
Matrix coefficients            : BT.601
Color range                    : Limited
Audio
ID                             : 2
Format                         : MPEG Audio
Format version                 : Version 1
Format profile                 : Layer 2
Codec ID                       : A_MPEG/L2
Codec ID/Hint                  : MP2
Duration                       : 1h 22mn
Bit rate mode                  : Constant
Bit rate                       : 256 Kbps
Channel(s)                     : 2 channels
Sampling rate                  : 48.0 KHz
Compression mode               : Lossy
Stream size                    : 152 MiB (10%)
Language                       : English
Default                        : Yes
Forced                         : No





   Похожие торренты   Торрент   Размер 
В этой теме нет новых непрочитанных сообщений. Славянский базар 1999. Антология (1999) DVB от AND03AND

17 | 5

988.37 МБ

В этой теме нет новых непрочитанных сообщений. Рождение атомной бомбы / How We Built the Bomb (2013) HDTVRip

381 | 26

766.46 МБ

В этой теме нет новых непрочитанных сообщений. Спектакль - Чайка (1999) DVB от AND03AND

19 | 34

3.4 ГБ

В этой теме нет новых непрочитанных сообщений. Вместе с ним. Владимир Корш-Саблин (1999) DVB от AND03AND

0 | 1

518.53 МБ

В этой теме нет новых непрочитанных сообщений. Остап Бендер. История прототипа (1999) DVB от AND03AND

14 | 0

494.68 МБ

В этой теме нет новых непрочитанных сообщений. Спектакль - Поцелуй меня, Генри! / Когда лошадь теряет сознание (1999) DVB-AVC от AND03AND

27 | 5

1.77 ГБ

В этой теме нет новых непрочитанных сообщений. Рейнджер - Танцуй (1991) FLAC

2 | 2

267.69 МБ




Вы не можете начинать темы
Вы не можете отвечать на сообщения
Вы не можете редактировать свои сообщения
Вы не можете удалять свои сообщения
Вы не можете добавлять вложения

Перейти:  
Для Мосгорсуда, Роскомнадзора и рекламодателей: mosgorsud-torrent[собачка]yandex.ru
 Вход
ppkBB3cker v.2 © 2008-2014 @ PPK
[ Time : 0.031s | 15 Queries | GZIP : Off ]

Торрент трекер RUTOR.IN, Не можете зайти на rutor.org? Какой новый адрес рутор? Какое зеркало рутор? Не работает rutor.org и зеркала? Тогда наш торрент специально для вас. Rutor.in неофициальное зеркало rutor. В случае если у Вас заблокирован rutor или вдруг Вы не можете на него зайти, то Вы без труда сможете скачать бесплатно и без рекламы последние новинки кино, игр, сериалов и прочего у нас, на Rutor.in. Не нужно использовать прокси, чтобы зайти на рутор, достаточно воспользоваться нашим ресурсом. Все новые фильмы, игры, сериалы, книги и музыка за 2013 и 2014 годы через торрент бесплатно. Скачивайте фильмы в хорошем качестве, игры для пк, xbox, playstation без регистрации. У нас вы найдете новые Зарубежные сериалы и Русские сериалы 2013, 2014, 2015 годов. Оставайтесь с нами, качайте любимые фильмы, игры, сериалы, книги и музыку.