img image001 image001 image001 image001 image001 image001 image001 image001 image001 image001 image001 image001 image001 image001 image001

Planets Sun Sun Sun
Статистика раздачи
Автор: Nickolas3434 | Размер: 6.67 ГБ | Добавлен: 17 май 2016
Раздают: 26    Качают: 3
Скачать торрент
Скачать торрент
Описание торрента

СообщениеДобавлено: 17 май 2016 


Информация о фильме
Название: Мертвые души
Год выхода: 1984
Жанр: Трагикомедия
Режиссер: Михаил Швейцер
В ролях: Виталий Шаповалов, Вячеслав Невинный, Тамара Носова, Иннокентий Смоктуновский, Юрий Богатырёв, Александр Калягин, Ирина Малышева, Мария Виноградова, Мария Скворцова, Николай Горлов, Татьяна Гаврилова, Александр Трофимов, Виктор Сергачёв, Николай Кочегаров, Александр Новиков, Инна Чурикова, Лариса Удовиченко, Лидия Федосеева-Шукшина, Станислав Хитров, Игорь Кашинцев, Надежда Бутырцева, Виктория Духина, Ирина Бразговка, Виктор Шуляковский, Константин Желдин, Алексей Зайцев, Анна Исайкина, Александр Сажин, Валерий Золотухин, Всеволод Санаев, Инна Макарова, Алексей Сафонов, Юрий Волынцев, Лев Поляков, Евгений Данчевский, Елизавета Никищихина, Владимир Стеклов
О фильме:
Сатирическая трагикомедия по одноименной поэме Н.В. Гоголя. Авантюрист Чичиков скупает «мертвые души» — почивших крепостных, учтенных в качестве живых при последней ревизии. Помещики удивлены просьбами предприимчивого знакомца, но рады избавиться от обузы — ведь они платят налоги за учтенных в ревизских сказках крестьян как за живых. В дальнейшем Павел Иванович планирует совершить с купчими ряд махинаций и сказочно обогатиться. Но осуществиться его наполеоновским планам не суждено…
Страна: СССР, Гостелерадио, Мосфильм
Продолжительность: 5 x ~ 01:16:30
Перевод: не требуется
Файл
Кодек: x264
Качество: DVDRip-AVC
Видео: MPEG-4 AVC, ~ 1900 Кбит/с, 716x576@763x576
Звук: AC3, 6 ch, 448 Кбит/с, AC3, 1 ch, 128 Кбит/с

raw [info]: 714x574p 16:15 @ 25/1 fps (cfr)
x264 [info]: using SAR=16/15
x264 [info]: using cpu capabilities: MMX2 SSE2Fast SSSE3 SSE4.2 AVX
x264 [info]: profile High, level 4.1
x264 [info]: frame I:625 Avg QP:14.52 size: 65755
x264 [info]: frame P:29201 Avg QP:18.04 size: 23209
x264 [info]: frame B:97494 Avg QP:20.40 size: 5034
=======================================================================================================
Общее
Уникальный идентификатор : 191274842999676419539213534964852086600 (0x8FE631DCB73889C799DDEB4D1A8E5748)
Полное имя : R:МОИ РИПЫМертвые души_1984-DVDRip-AVCДуши-1.mkv
Формат : Matroska
Версия формата : Version 2
Размер файла : 1,18 Гбайт
Продолжительность : 1 ч. 8 м.
Общий поток : 2478 Кбит/сек
Дата кодирования : UTC 2016-05-14 14:30:43
Программа кодирования : mkvmerge v5.8.0 ('No Sleep / Pillow') built on Sep 2 2012 15:37:04
Библиотека кодирования : libebml v1.2.3 + libmatroska v1.3.0
Видео
Идентификатор : 1
Формат : AVC
Формат/Информация : Advanced Video Codec
Профиль формата : High@L4.1
Параметр CABAC формата : Да
Параметр ReFrames формата : 14 кадров
Идентификатор кодека : V_MPEG4/ISO/AVC
Продолжительность : 1 ч. 8 м.
Битрейт : 1900 Кбит/сек
Ширина : 716 пикселей
Высота : 576 пикселей
Соотношение сторон : 4:3
Соотношение сторон в оригинале : 4:3
Режим частоты кадров : Постоянный
Частота кадров : 25,000 кадров/сек
Цветовое пространство : YUV
Субдискретизация насыщенности : 4:2:0
Битовая глубина : 8 бит
Тип развёртки : Прогрессивная
Бит/(Пиксели*Кадры) : 0.184
Размер потока : 905 Мбайт (75%)
Библиотека кодирования : x264 core 148 r2638 7599210
Настройки программы : cabac=1 / ref=14 / deblock=1:-2:-2 / analyse=0x3:0x133 / me=umh / subme=10 / psy=1 / psy_rd=1.05:0.12 / mixed_ref=1 / me_range=32 / chroma_me=1 / trellis=2 / 8x8dct=1 / cqm=0 / deadzone=21,11 / fast_pskip=0 / chroma_qp_offset=-3 / threads=12 / lookahead_threads=2 / sliced_threads=0 / nr=0 / decimate=0 / interlaced=0 / bluray_compat=0 / constrained_intra=0 / bframes=9 / b_pyramid=2 / b_adapt=2 / b_bias=0 / direct=3 / weightb=1 / open_gop=0 / weightp=2 / keyint=250 / keyint_min=25 / scenecut=40 / intra_refresh=0 / rc_lookahead=60 / rc=2pass / mbtree=1 / bitrate=1900 / ratetol=1.0 / qcomp=0.70 / qpmin=0 / qpmax=39 / qpstep=4 / cplxblur=20.0 / qblur=0.5 / ip_ratio=1.40 / aq=1:1.00
Язык : English
Default : Да
Forced : Нет
Цветовой диапазон : Limited
Основные цвета : BT.601 PAL
Характеристики трансфера : BT.470 System B, BT.470 System G
Коэффициенты матрицы : BT.601
Аудио #1
Идентификатор : 2
Формат : AC-3
Формат/Информация : Audio Coding 3
Расширение режима : CM (complete main)
Параметр Endianness формата : Big
Идентификатор кодека : A_AC3
Продолжительность : 1 ч. 8 м.
Вид битрейта : Постоянный
Битрейт : 448 Кбит/сек
Каналы : 6 каналов
Расположение каналов : Front: L C R, Side: L R, LFE
Частота : 48,0 КГц
Метод сжатия : С потерями
Размер потока : 219 Мбайт (18%)
Язык : Russian
Default : Да
Forced : Нет
Аудио #2
Идентификатор : 3
Формат : AC-3
Формат/Информация : Audio Coding 3
Расширение режима : CM (complete main)
Параметр Endianness формата : Big
Идентификатор кодека : A_AC3
Продолжительность : 1 ч. 8 м.
Вид битрейта : Постоянный
Битрейт : 128 Кбит/сек
Каналы : 1 канал
Расположение каналов : Front: C
Частота : 48,0 КГц
Метод сжатия : С потерями
Размер потока : 62,5 Мбайт (5%)
Язык : Russian
Default : Нет
Forced : Нет

Релиз от:
Автор релиза:



   Похожие торренты   Торрент   Размер 
В этой теме нет новых непрочитанных сообщений. Мертвые души (1984) DVDRip

2278 | 105

4.33 ГБ

В этой теме нет новых непрочитанных сообщений. Мертвые души (2008) DVDRip

8 | 6

1.37 ГБ

В этой теме нет новых непрочитанных сообщений. Мертвые души [3 части из 3] (1969) DVDRip от Pshichko66

113 | 44

2.44 ГБ

В этой теме нет новых непрочитанных сообщений. Гоголь Николай - Мертвые души (2006) MP3

179 | 10

152.94 МБ

В этой теме нет новых непрочитанных сообщений. Мертвые души (2008) SATRip от КинозалSAT

20 | 7

799.49 МБ

В этой теме нет новых непрочитанных сообщений. Мертвые души (2008) SATRip от КинозалSAT

8 | 5

1.37 ГБ

В этой теме нет новых непрочитанных сообщений. Николай Васильевич Гоголь - Мертвые души (1842) (2011) MP3

209 | 7

205.21 МБ




Вы не можете начинать темы
Вы не можете отвечать на сообщения
Вы не можете редактировать свои сообщения
Вы не можете удалять свои сообщения
Вы не можете добавлять вложения

Перейти:  
Для Мосгорсуда, Роскомнадзора и рекламодателей: mosgorsud-torrent[собачка]yandex.ru
 Вход
ppkBB3cker v.2 © 2008-2014 @ PPK
[ Time : 0.053s | 14 Queries | GZIP : Off ]

Торрент трекер RUTOR.IN, Не можете зайти на rutor.org? Какой новый адрес рутор? Какое зеркало рутор? Не работает rutor.org и зеркала? Тогда наш торрент специально для вас. Rutor.in неофициальное зеркало rutor. В случае если у Вас заблокирован rutor или вдруг Вы не можете на него зайти, то Вы без труда сможете скачать бесплатно и без рекламы последние новинки кино, игр, сериалов и прочего у нас, на Rutor.in. Не нужно использовать прокси, чтобы зайти на рутор, достаточно воспользоваться нашим ресурсом. Все новые фильмы, игры, сериалы, книги и музыка за 2013 и 2014 годы через торрент бесплатно. Скачивайте фильмы в хорошем качестве, игры для пк, xbox, playstation без регистрации. У нас вы найдете новые Зарубежные сериалы и Русские сериалы 2013, 2014, 2015 годов. Оставайтесь с нами, качайте любимые фильмы, игры, сериалы, книги и музыку.