img image001 image001 image001 image001 image001 image001 image001 image001 image001 image001 image001 image001 image001 image001 image001

Planets Sun Sun Sun
Статистика раздачи
Автор: Nickolas3434 | Размер: 1.37 ГБ | Добавлен: 20 май 2016
Раздают: 107    Качают: 5
Скачать торрент
Скачать торрент
Описание торрента

СообщениеДобавлено: 20 май 2016 


Информация о фильме
Название: Перед рассветом
Год выхода: 1989
Жанр: Боевик, военный
Режиссер: Ярополк Лапшин
В ролях: Николай Бадьев, Евгений Миронов, Александр Панкратов-Чёрный, Валерий Рыжаков, Раиса Рязанова, Константин Степанков, Вера Альховская, Олег Корчиков, Вячеслав Кириличев, Игорь Головин
О фильме:
Жаркое лето 1941 года. Небольшая станция в прифронтовой полосе. В один из вагонов погружают группу уголовников. Не успевает поезд проехать и несколько километров, как подвергается налету авиации и атаке десанта.
После боя из всего состава в живых остаются только трое: молодой лейтенант НКВД, «вор в законе» и репрессированный генерал. Они бегут в лес, подальше от разбитого поезда и преследующих их немцев. В такой ситуации заключенные, казалось, могли бы считать себя свободными, но лейтенант думает иначе и намерен доставить их к месту назначения.

Страна: СССР
Студия: Свердловская киностудия
Продолжительность: 01:19:46
Перевод: Не требуется
Файл
Качество: HDTVRip
Кодек: XviD
Видео: 720x528 (1,37:1), 25 fps, XviD ~2263 kbps avg, 0.238 bit/pixel
Звук: AC3, 48 kHz, 2 ch, ~192.00 kbps avg
Субтитры: Отсутствуют
Семпл
Общее
Полное имя : D:TorrentsЗавершенныеPered.rassvetom.1989.HDTVRip_POWER.avi
Формат : AVI
Формат/Информация : Audio Video Interleave
Профиль формата : OpenDML
Размер файла : 1,37 Гбайт
Продолжительность : 1 ч. 19 м.
Общий поток : 2467 Кбит/сек
Программа кодирования : Lavf57.25.100
Видео
Идентификатор : 0
Формат : MPEG-4 Visual
Профиль формата : Advanced Simple@L5
Параметр BVOP формата : 1
Параметр QPel формата : Нет
Параметр GMC формата : Без точки перехода
Параметр матрицы формата : Default (H.263)
Идентификатор кодека : XVID
Идентификатор кодека/Подсказка : XviD
Продолжительность : 1 ч. 19 м.
Битрейт : 2263 Кбит/сек
Ширина : 720 пикселей
Высота : 528 пикселей
Соотношение сторон : 1,370
Частота кадров : 25,000 кадров/сек
Цветовое пространство : YUV
Субдискретизация насыщенности : 4:2:0
Битовая глубина : 8 бит
Тип развёртки : Прогрессивная
Тип развёртки в оригинале : Чересстрочная
Порядок развёртки в оригинале : Верхнее поле первое
Метод сжатия : С потерями
Бит/(Пиксели*Кадры) : 0.238
Размер потока : 1,26 Гбайт (92%)
Библиотека кодирования : XviD 67
Аудио
Идентификатор : 1
Формат : AC-3
Формат/Информация : Audio Coding 3
Расширение режима : CM (complete main)
Параметр Endianness формата : Big
Идентификатор кодека : 2000
Продолжительность : 1 ч. 19 м.
Вид битрейта : Постоянный
Битрейт : 192 Кбит/сек
Каналы : 2 канала
Расположение каналов : Front: L R
Частота : 48,0 КГц
Частота кадров : 31,250 кадров/сек (1536 spf)
Битовая глубина : 16 бит
Метод сжатия : С потерями
Размер потока : 109 Мбайт (8%)
Выравнивание : Соединение по промежуткам
Продолжительность промежутка : 32 мс. (0,80 видеокадр)
Время предзагрузки промежутка : 32 мс.



   Похожие торренты   Торрент   Размер 
В этой теме нет новых непрочитанных сообщений. Перед рассветом (1989) HDTVRip-AVC от ExKinoRay

42 | 11

1.78 ГБ

В этой теме нет новых непрочитанных сообщений. Перед рассветом (1989) HDTVRip 720p

121 | 7

2.61 ГБ

В этой теме нет новых непрочитанных сообщений. Перед рассветом (1989) HDTVRip от Шкипер

43 | 2

744.46 МБ

В этой теме нет новых непрочитанных сообщений. Перед рассветом (1989) DVDRip

98 | 13

1.37 ГБ

В этой теме нет новых непрочитанных сообщений. Перед рассветом (1989) TVRip

234 | 11

1.75 ГБ

В этой теме нет новых непрочитанных сообщений. Перед рассветом (1989) DVDRip от New-Team

139 | 16

744.43 МБ

В этой теме нет новых непрочитанных сообщений. Перед рассветом (1989) DVDRip от New-Team

61 | 12

1.09 ГБ




Вы не можете начинать темы
Вы не можете отвечать на сообщения
Вы не можете редактировать свои сообщения
Вы не можете удалять свои сообщения
Вы не можете добавлять вложения

Перейти:  
Для Мосгорсуда, Роскомнадзора и рекламодателей: mosgorsud-torrent[собачка]yandex.ru
 Вход
ppkBB3cker v.2 © 2008-2014 @ PPK
[ Time : 0.036s | 16 Queries | GZIP : Off ]

Торрент трекер RUTOR.IN, Не можете зайти на rutor.org? Какой новый адрес рутор? Какое зеркало рутор? Не работает rutor.org и зеркала? Тогда наш торрент специально для вас. Rutor.in неофициальное зеркало rutor. В случае если у Вас заблокирован rutor или вдруг Вы не можете на него зайти, то Вы без труда сможете скачать бесплатно и без рекламы последние новинки кино, игр, сериалов и прочего у нас, на Rutor.in. Не нужно использовать прокси, чтобы зайти на рутор, достаточно воспользоваться нашим ресурсом. Все новые фильмы, игры, сериалы, книги и музыка за 2013 и 2014 годы через торрент бесплатно. Скачивайте фильмы в хорошем качестве, игры для пк, xbox, playstation без регистрации. У нас вы найдете новые Зарубежные сериалы и Русские сериалы 2013, 2014, 2015 годов. Оставайтесь с нами, качайте любимые фильмы, игры, сериалы, книги и музыку.
cron