img image001 image001 image001 image001 image001 image001 image001 image001 image001 image001 image001 image001 image001 image001 image001

Planets Sun Sun Sun
Статистика раздачи
Автор: Nickolas3434 | Размер: 5.85 ГБ | Добавлен: 20 май 2016
Раздают: 17    Качают: 5
Скачать торрент
Скачать торрент
Описание торрента

СообщениеДобавлено: 20 май 2016 


Информация о фильме
Название: Предел возможного
Год выхода: 1984
Жанр: Киноповесть, социальная драма
Режиссер: Павел Коган, Пётр Мостовой
В ролях: Виталий Соломин, Ирина Бразговка, Андрей Болтнев, Евгений Евстигнеев, Владимир Земляникин, Елена Ивочкина, Юрий Кузнецов, Авангард Леонтьев, Марина Шиманская, Тамара Логинова, Александр Пашутин, Раиса Рязанова, Валентин Смирнитский, Юрий Ступаков, Николай Скоробогатов, Наталия Селиверстова, Татьяна Новицкая, Александр Назаров, Валентина Устимович, Алексей Михайлов, Ростислав Янковский, Наталья Молева, Сергей Цейц
О фильме:
По роману И.Герасимова. Герой фильма — Игнат Матвеевич Ремез — прошел путь от молодого специалиста в годы Великой Отечественной войны, до руководителя крупного промышленного предприятия в мирное время...
Страна: СССР, ТО "Экран"
Продолжительность: 01:08:00 + 01:08:00 + 01:11:00 + 01:15:00 + 01:06:00
Перевод: не требуется
Файл
Кодек: x264
Качество: SATRip-AVC
Видео: MPEG-4 AVC, 2200 Кбит/с, 706x566@753x566
Звук: AC3, 2 ch, 192 Кбит/с

raw [info]: 706x566p 16:15 @ 25/1 fps (cfr)
x264 [info]: using SAR=16/15
x264 [info]: using cpu capabilities: MMX2 SSE2Fast SSSE3 SSE4.2 AVX
x264 [info]: profile High, level 4.1
x264 [info]: frame I:550 Avg QP:15.82 size: 64638
x264 [info]: frame P:23070 Avg QP:19.62 size: 24359
x264 [info]: frame B:79717 Avg QP:20.98 size: 6765
==============================================================================================
Общее
Уникальный идентификатор : 243866652981494498392440991161020307200 (0xB7770249FCB9407E9C4145B3F813D700)
Полное имя : R:МОИ РИПЫПредел возможного_1984-SATRip-AVCПредел-1.mkv
Формат : Matroska
Версия формата : Version 2
Размер файла : 1,15 Гбайт
Продолжительность : 1 ч. 8 м.
Общий поток : 2394 Кбит/сек
Дата кодирования : UTC 2016-05-17 10:26:49
Программа кодирования : mkvmerge v5.8.0 ('No Sleep / Pillow') built on Sep 2 2012 15:37:04
Библиотека кодирования : libebml v1.2.3 + libmatroska v1.3.0
Видео
Идентификатор : 1
Формат : AVC
Формат/Информация : Advanced Video Codec
Профиль формата : High@L4.1
Параметр CABAC формата : Да
Параметр ReFrames формата : 14 кадров
Идентификатор кодека : V_MPEG4/ISO/AVC
Продолжительность : 1 ч. 8 м.
Битрейт : 2200 Кбит/сек
Ширина : 706 пикселей
Высота : 566 пикселей
Соотношение сторон : 4:3
Соотношение сторон в оригинале : 4:3
Режим частоты кадров : Постоянный
Частота кадров : 25,000 кадров/сек
Цветовое пространство : YUV
Субдискретизация насыщенности : 4:2:0
Битовая глубина : 8 бит
Тип развёртки : Прогрессивная
Бит/(Пиксели*Кадры) : 0.220
Размер потока : 1,04 Гбайт (90%)
Библиотека кодирования : x264 core 148 r2638 7599210
Настройки программы : cabac=1 / ref=14 / deblock=1:-2:-2 / analyse=0x3:0x133 / me=umh / subme=10 / psy=1 / psy_rd=1.00:0.10 / mixed_ref=1 / me_range=32 / chroma_me=1 / trellis=2 / 8x8dct=1 / cqm=0 / deadzone=21,11 / fast_pskip=0 / chroma_qp_offset=-3 / threads=12 / lookahead_threads=2 / sliced_threads=0 / nr=0 / decimate=0 / interlaced=0 / bluray_compat=0 / constrained_intra=0 / bframes=9 / b_pyramid=2 / b_adapt=2 / b_bias=0 / direct=3 / weightb=1 / open_gop=0 / weightp=2 / keyint=250 / keyint_min=25 / scenecut=40 / intra_refresh=0 / rc=2pass / mbtree=0 / bitrate=2200 / ratetol=1.0 / qcomp=0.63 / qpmin=0 / qpmax=39 / qpstep=4 / cplxblur=20.0 / qblur=0.5 / ip_ratio=1.40 / pb_ratio=1.30 / aq=1:1.00
Язык : English
Default : Да
Forced : Нет
Цветовой диапазон : Limited
Основные цвета : BT.601 PAL
Характеристики трансфера : BT.470 System B, BT.470 System G
Коэффициенты матрицы : BT.601
Аудио
Идентификатор : 2
Формат : AC-3
Формат/Информация : Audio Coding 3
Расширение режима : CM (complete main)
Параметр Endianness формата : Big
Идентификатор кодека : A_AC3
Продолжительность : 1 ч. 8 м.
Вид битрейта : Постоянный
Битрейт : 192 Кбит/сек
Каналы : 2 канала
Расположение каналов : Front: L R
Частота : 48,0 КГц
Метод сжатия : С потерями
Размер потока : 94,6 Мбайт (8%)
Язык : Russian
Default : Да
Forced : Нет

Релиз от:
Автор релиза:



   Похожие торренты   Торрент   Размер 
В этой теме нет новых непрочитанных сообщений. За гранью возможного (Внешние пределы) / The Outer Limits [S03] (1997) SATRip

181 | 38

6.18 ГБ

В этой теме нет новых непрочитанных сообщений. За гранью возможного (Внешние пределы) / The Outer Limits [S02] (1996) SATRip

178 | 44

7.43 ГБ

В этой теме нет новых непрочитанных сообщений. За гранью возможного (Внешние пределы) / The Outer Limits [S04-S7] (1998-2002) SATRip

39 | 35

30.1 ГБ

В этой теме нет новых непрочитанных сообщений. Берег его жизни (1984) SATRip-AVC от ExKinoRay

9 | 5

3.51 ГБ

В этой теме нет новых непрочитанных сообщений. Прохиндиада, или бег на месте (1984) SATRip-AVC от ExKinoRay

220 | 10

1.69 ГБ

В этой теме нет новых непрочитанных сообщений. Колье Шарлотты [01-03 из 03] (1984) SATRip-AVC от ExKinoRay

451 | 39

3.03 ГБ

В этой теме нет новых непрочитанных сообщений. В двух шагах от «Рая» (1984) SATRip от ExKinoRay

30 | 1

1.37 ГБ




Вы не можете начинать темы
Вы не можете отвечать на сообщения
Вы не можете редактировать свои сообщения
Вы не можете удалять свои сообщения
Вы не можете добавлять вложения

Перейти:  
Для Мосгорсуда, Роскомнадзора и рекламодателей: mosgorsud-torrent[собачка]yandex.ru
 Вход
ppkBB3cker v.2 © 2008-2014 @ PPK
[ Time : 0.046s | 17 Queries | GZIP : Off ]

Торрент трекер RUTOR.IN, Не можете зайти на rutor.org? Какой новый адрес рутор? Какое зеркало рутор? Не работает rutor.org и зеркала? Тогда наш торрент специально для вас. Rutor.in неофициальное зеркало rutor. В случае если у Вас заблокирован rutor или вдруг Вы не можете на него зайти, то Вы без труда сможете скачать бесплатно и без рекламы последние новинки кино, игр, сериалов и прочего у нас, на Rutor.in. Не нужно использовать прокси, чтобы зайти на рутор, достаточно воспользоваться нашим ресурсом. Все новые фильмы, игры, сериалы, книги и музыка за 2013 и 2014 годы через торрент бесплатно. Скачивайте фильмы в хорошем качестве, игры для пк, xbox, playstation без регистрации. У нас вы найдете новые Зарубежные сериалы и Русские сериалы 2013, 2014, 2015 годов. Оставайтесь с нами, качайте любимые фильмы, игры, сериалы, книги и музыку.
cron