img image001 image001 image001 image001 image001 image001 image001 image001 image001 image001 image001 image001 image001 image001 image001

Planets Sun Sun Sun
Статистика раздачи
Автор: Nickolas3434 | Размер: 1.46 ГБ | Добавлен: 20 май 2016
Раздают: 301    Качают: 14
Скачать торрент
Скачать торрент
Описание торрента

СообщениеДобавлено: 20 май 2016 

Снайпер: Герой сопротивления / Снайпер: Последний выстрел


Страна: Беларусь, Россия
Жанр: военный, боевик
Год выпуска: 2015
Продолжительность: 01:20:22
Перевод: Не требуется
Cубтитры: нет
Оригинальная аудиодорожка: русский
Режиссер: Арман Геворгян
В ролях: Гоша Куценко, Анна Снаткина, Владимир Гостюхин, Денис Бургазлиев, Дирк Мартенс, Борис Романов, Юлия Кадушкевич, Георгий Сивохин, Руслан Чернецкий, Олег Вебер, Сергей Журавель, Сергей Широчин
Описание:
Лето 1941-го. Наступление вермахта развивается по всем фронтам. Красная Армия на грани катастрофы. В эпицентре событий - судьбы русского Николая Волохова и француза Андре Ренье.

Релиз:
Автор рипа: stalkerok
Сэмпл
Качество видео: HDTVRip-AVC [HDTV / 1080i]
Формат видео: MKV
Видео кодек: AVC
Аудио кодек: AC3
Видео: 2148 Кбит/сек, 1132x474 (2.40:1), 25 кадр/сек, AVC
Аудио: русский, 448 Кбит/сек, 48 КГц, 16 бит, 5.1, AC3

Общее
Уникальный идентификатор : 193606522214122930609972532615421582053 (0x91A74285EDAB90CB80B97401F2D35AE5)
Полное имя : M:1WEB-DLSnajper Geroj soprotivlenijaSnajper.Geroj.soprotivlenija.2015.HDTVRip-AVC.1.45Gb.stalkerok.new-team.mkv
Формат : Matroska
Версия формата : Version 4 / Version 2
Размер файла : 1,46 Гбайт
Продолжительность : 1 ч. 20 м.
Общий поток : 2597 Кбит/сек
Название фильма : Снайпер: Герой сопротивления (2015) (New-Team) (Rip by Stalker oK)
Дата кодирования : UTC 2016-05-19 11:07:51
Программа кодирования : mkvmerge v8.6.1 ('Flying') 64bit
Библиотека кодирования : libebml v1.3.3 + libmatroska v1.4.4
Видео
Идентификатор : 1
Формат : AVC
Формат/Информация : Advanced Video Codec
Профиль формата : High@L4.1
Параметр CABAC формата : Да
Параметр ReFrames формата : 14 кадров
Идентификатор кодека : V_MPEG4/ISO/AVC
Продолжительность : 1 ч. 20 м.
Битрейт : 2148 Кбит/сек
Ширина : 1132 пикселя
Высота : 474 пикселя
Соотношение сторон : 2,40:1
Режим частоты кадров : Постоянный
Частота кадров : 25,000 кадров/сек
Цветовое пространство : YUV
Субдискретизация насыщенности : 4:2:0
Битовая глубина : 8 бит
Тип развёртки : Прогрессивная
Бит/(Пиксели*Кадры) : 0.160
Размер потока : 1,21 Гбайт (83%)
Заголовок : Снайпер: Герой сопротивления (2015) (New-Team) (Rip by Stalker oK)
Библиотека кодирования : x264 core 148 r2665kMod a01e339
Настройки программы : cabac=1 / ref=14 / deblock=1:-3:-2 / analyse=0x3:0x133 / me=umh / subme=10 / psy=1 / fade_compensate=0.00 / psy_rd=1.00:0.00 / mixed_ref=1 / me_range=32 / chroma_me=1 / trellis=2 / 8x8dct=1 / cqm=0 / deadzone=21,11 / fast_pskip=0 / chroma_qp_offset=-2 / threads=12 / lookahead_threads=3 / sliced_threads=0 / nr=0 / decimate=0 / interlaced=0 / bluray_compat=0 / constrained_intra=0 / fgo=0 / bframes=14 / b_pyramid=2 / b_adapt=2 / b_bias=0 / direct=3 / weightb=1 / open_gop=0 / weightp=2 / keyint=250 / keyint_min=25 / scenecut=40 / intra_refresh=0 / rc_lookahead=60 / rc=2pass / mbtree=0 / bitrate=2148 / ratetol=1.0 / qcomp=0.65 / qpmin=0 / qpmax=69 / qpstep=4 / cplxblur=20.0 / qblur=0.5 / vbv_maxrate=50000 / vbv_bufsize=62500 / nal_hrd=none / filler=0 / ip_ratio=1.30 / pb_ratio=1.25 / aq=1:0.85
Default : Да
Forced : Нет
Аудио
Идентификатор : 2
Формат : AC-3
Формат/Информация : Audio Coding 3
Расширение режима : CM (complete main)
Параметр Endianness формата : Big
Идентификатор кодека : A_AC3
Продолжительность : 1 ч. 20 м.
Вид битрейта : Постоянный
Битрейт : 448 Кбит/сек
Каналы : 6 каналов
Расположение каналов : Front: L C R, Side: L R, LFE
Частота : 48,0 КГц
Частота кадров : 31,250 кадров/сек (1536 spf)
Метод сжатия : С потерями
Размер потока : 258 Мбайт (17%)
Язык : Russian
Default : Да
Forced : Нет





   Похожие торренты   Торрент   Размер 
В этой теме нет новых непрочитанных сообщений. Снайпер: Герой сопротивления / Снайпер: Последний выстрел (2015) HDTVRip-AVC от Files-x

587 | 31

1.37 ГБ

В этой теме нет новых непрочитанных сообщений. Снайпер: Герой сопротивления / Снайпер: Последний выстрел (2015) WEB-DL 720p | iTunes

2192 | 169

2.5 ГБ

В этой теме нет новых непрочитанных сообщений. Снайпер: Последний выстрел / Снайпер: Герой сопротивления (2015) WEB-DLRip от MAGNAT231 | КПК

568 | 22

319.81 МБ

В этой теме нет новых непрочитанных сообщений. Снайпер: Герой сопротивления / Последний выстрел [01-04 из 04] (2015) SATRip

1499 | 236

2.2 ГБ

В этой теме нет новых непрочитанных сообщений. Снайпер: Герой сопротивления (2015) HDTVRip 720p от MediaClub

180 | 8

2.43 ГБ

В этой теме нет новых непрочитанных сообщений. Снайпер: Герой сопротивления [01-04 из 04] (2015) DVB от Files-х

324 | 71

5.14 ГБ

В этой теме нет новых непрочитанных сообщений. Снайпер: Герой сопротивления (2015) WEB-DLRip-AVC | iTunes

755 | 22

991.74 МБ




Вы не можете начинать темы
Вы не можете отвечать на сообщения
Вы не можете редактировать свои сообщения
Вы не можете удалять свои сообщения
Вы не можете добавлять вложения

Перейти:  
Для Мосгорсуда, Роскомнадзора и рекламодателей: mosgorsud-torrent[собачка]yandex.ru
 Вход
ppkBB3cker v.2 © 2008-2014 @ PPK
[ Time : 0.051s | 15 Queries | GZIP : Off ]

Торрент трекер RUTOR.IN, Не можете зайти на rutor.org? Какой новый адрес рутор? Какое зеркало рутор? Не работает rutor.org и зеркала? Тогда наш торрент специально для вас. Rutor.in неофициальное зеркало rutor. В случае если у Вас заблокирован rutor или вдруг Вы не можете на него зайти, то Вы без труда сможете скачать бесплатно и без рекламы последние новинки кино, игр, сериалов и прочего у нас, на Rutor.in. Не нужно использовать прокси, чтобы зайти на рутор, достаточно воспользоваться нашим ресурсом. Все новые фильмы, игры, сериалы, книги и музыка за 2013 и 2014 годы через торрент бесплатно. Скачивайте фильмы в хорошем качестве, игры для пк, xbox, playstation без регистрации. У нас вы найдете новые Зарубежные сериалы и Русские сериалы 2013, 2014, 2015 годов. Оставайтесь с нами, качайте любимые фильмы, игры, сериалы, книги и музыку.