img image001 image001 image001 image001 image001 image001 image001 image001 image001 image001 image001 image001 image001 image001 image001

Planets Sun Sun Sun
Статистика раздачи
Автор: Nickolas3434 | Размер: 1.46 ГБ | Добавлен: 21 май 2016
Раздают: 5318    Качают: 221
Скачать торрент
Скачать торрент
Описание торрента

СообщениеДобавлено: 21 май 2016 


СуперБобровы
Страна: Россия
Производство: Yellow, Black & White
Год выпуска: 2015
Жанр: комедия, семейный, фантастика
Продолжительность: 01:31:28
Режиссер: Дмитрий Дьяченко
Авторы сценария: Михаил Местецкий, Алексей Казаков, Виталий Шляппо
В ролях: Павел Деревянко, Оксана Акиньшина, Роман Мадянов, Ирина Пегова, Владимир Толоконников, Даниил Вахрушев, Софья Мицкевич, Михаил Шамигулов
Описание: Вместо десерта на ужин семейство Бобровых получило… метеорит. Настоящий, большой, из космоса. Благодаря ему Бобровы вдруг приобретают немыслимые сверхспособности. Дед становится бессмертным, а отец теперь может телепортироваться. Сын начинает понимать собачий язык, а его сёстры получают суперсилу, возможность летать и быть невидимой. Единственное ограничение — способности действуют только когда вся семейка в сборе. Короче, у заурядной, среднестатистической ячейки общества появляется шанс превратиться в отряд настоящих супергероев. Вот только вместо того, чтобы спасать мир, они решают ограбить ближайший банк…

Перевод: не требуется (оригинал)
Субтитры: нет

Качество: BDRip
Формат: АVI
Видео кодек: XviD
Аудио кодек: АС3
Видео: 720x304 (2.35:1), 25.000 fps, XviD ~2 221 kbps avg, 0.406 bit/pixel
Аудио: 48.0 kHz, AC3 Dolby Digital, 3/2 (L,C,R,l,r) + LFE ch, ~448.00 kbps
Дата премьеры (РФ): 17 марта 2016, «WDSSPR»

General
Format : AVI
Format/Info : Audio Video Interleave
Overall bit rate : 2 679 Kbps
Movie name : SuPerBoBroVi.2O16.O.BDRip.14OOMB
Writing application : VirtualDubMod 1.5.10.3 | (build 2550/release)
Writing library : VirtualDubMod build 2550/release
Copyright : MoreFilms
Video
ID : 0
Format : MPEG-4 Visual
Format profile : Advanced Simple@L5
Format settings, BVOP : 2
Format settings, QPel : No
Format settings, GMC : No warppoints
Format settings, Matrix : Custom
Codec ID : XVID
Codec ID/Hint : XviD
Bit rate : 2 221 Kbps
Width : 720 pixels
Height : 304 pixels
Display aspect ratio : 2.35:1
Frame rate : 25.000 fps
Color space : YUV
Chroma subsampling : 4:2:0
Bit depth : 8 bits
Scan type : Progressive
Compression mode : Lossy
Bits/(Pixel*Frame) : 0.406
Stream size : 20.9 MiB (83%)
Writing library : XviD 1.2.1 (UTC 2008-12-04)
Audio
ID : 1
Format : AC-3
Format/Info : Audio Coding 3
Mode extension : CM (complete main)
Format settings, Endianness : Big
Codec ID : 2000
Bit rate mode : Constant
Bit rate : 448 Kbps
Channel(s) : 6 channels
Channel positions : Front: L C R, Side: L R, LFE
Sampling rate : 48.0 KHz
Compression mode : Lossy
Stream size : 4.21 MiB (17%)
Alignment : Split accross interleaves
Interleave, duration : 40 ms (1.01 video frame)
Interleave, preload duration : 500 ms




   Похожие торренты   Торрент   Размер 
В этой теме нет новых непрочитанных сообщений. СуперБобровы (2015) BDRip от MegaPeer | Лицензия

407 | 20

747.89 МБ

В этой теме нет новых непрочитанных сообщений. СуперБобровы (2015) BDRip 720p от HELLYWOOD | Лицензия

212 | 16

4.37 ГБ

В этой теме нет новых непрочитанных сообщений. СуперБобровы (2016) BDRip | Лицензия

1146 | 101

1.46 ГБ

В этой теме нет новых непрочитанных сообщений. СуперБобровы (2016) BDRip от HQCLUB | Лицензия

2904 | 59

1.45 ГБ

В этой теме нет новых непрочитанных сообщений. СуперБобровы (2016) BDRip-AVC от New-Team | Лицензия

434 | 44

2.91 ГБ

В этой теме нет новых непрочитанных сообщений. СуперБобровы (2016) BDRip-AVC от ExKinoRay | Лицензия

373 | 12

1.94 ГБ

В этой теме нет новых непрочитанных сообщений. СуперБобровы (2016) BDRip 1080p от ExKinoRay | Лицензия

605 | 24

8.05 ГБ




Вы не можете начинать темы
Вы не можете отвечать на сообщения
Вы не можете редактировать свои сообщения
Вы не можете удалять свои сообщения
Вы не можете добавлять вложения

Перейти:  
Для Мосгорсуда, Роскомнадзора и рекламодателей: mosgorsud-torrent[собачка]yandex.ru
 Вход
ppkBB3cker v.2 © 2008-2014 @ PPK
[ Time : 0.028s | 16 Queries | GZIP : Off ]

Торрент трекер RUTOR.IN, Не можете зайти на rutor.org? Какой новый адрес рутор? Какое зеркало рутор? Не работает rutor.org и зеркала? Тогда наш торрент специально для вас. Rutor.in неофициальное зеркало rutor. В случае если у Вас заблокирован rutor или вдруг Вы не можете на него зайти, то Вы без труда сможете скачать бесплатно и без рекламы последние новинки кино, игр, сериалов и прочего у нас, на Rutor.in. Не нужно использовать прокси, чтобы зайти на рутор, достаточно воспользоваться нашим ресурсом. Все новые фильмы, игры, сериалы, книги и музыка за 2013 и 2014 годы через торрент бесплатно. Скачивайте фильмы в хорошем качестве, игры для пк, xbox, playstation без регистрации. У нас вы найдете новые Зарубежные сериалы и Русские сериалы 2013, 2014, 2015 годов. Оставайтесь с нами, качайте любимые фильмы, игры, сериалы, книги и музыку.