img image001 image001 image001 image001 image001 image001 image001 image001 image001 image001 image001 image001 image001 image001 image001

Planets Sun Sun Sun
Статистика раздачи
Автор: Nickolas3434 | Размер: 2.44 ГБ | Добавлен: 21 май 2016
Раздают: 23    Качают: 2
Скачать торрент
Скачать торрент
Описание торрента

СообщениеДобавлено: 21 май 2016 


Информация о фильме
Название: Смерть под парусом
Год выхода: 1976
Жанр: Детектив, экранизация
Режиссер: Ада Неретниеце
В ролях: Николай Крюков, Антанас Барчас, Марианна Вертинская, Гирт Яковлев, Мирдза Мартинсоне, Янис Паукштелло, Лембит Ульфсак, Ольгерт Дункерс, Калье Кийск, Эльза Радзиня, Юрис Стренга, Карлис Тренцис, Артур Димитерс, Херберт Зоммер, Николай Карамышев, Георг-Юрис Пучка, Карлис Тейхманис
О фильме:
Преуспевающий врач-онколог, доктор Роджер Миллз, пригласил компанию своих друзей провести время на его яхте. Через несколько дней, солнечным утром, его убивают выстрелом в сердце. За расследование принимается местный полицейский сержант Берелл и спешно вызванный на подмогу приятель Иена Кейпла мистер Финбоу.
Страна: СССР, Рижская киностудия
Продолжительность: 2 x ~ 01:04:30
Перевод: не требуется
Файл
Кодек: x264
Качество: SATRip-AVC
Видео: MPEG-4 AVC, 2500 Кбит/с, 704x572@768x572
Звук: AC3, 2 ch, 192 Кбит/с

raw [info]: 704x572p 12:11 @ 25/1 fps (cfr)
x264 [info]: using SAR=12/11
x264 [info]: using cpu capabilities: MMX2 SSE2Fast SSSE3 SSE4.2 AVX
x264 [info]: profile High, level 4.1
x264 [info]: frame I:33 Avg QP:15.91 size: 68186
x264 [info]: frame P:646 Avg QP:20.43 size: 24788
x264 [info]: frame B:1836 Avg QP:21.68 size: 7283
===========================================================================================
Общее
Уникальный идентификатор : 210227818063096234428845384799754538762 (0x9E2867ADC21E6633B4BE87D061524F0A)
Полное имя : R:МОИ РИПЫСмерть под парусом_1976-SATRip-AVCСмерть под парусом-1.mkv
Формат : Matroska
Версия формата : Version 2
Размер файла : 1,21 Гбайт
Продолжительность : 1 ч. 4 м.
Общий поток : 2694 Кбит/сек
Дата кодирования : UTC 2016-05-18 17:45:47
Программа кодирования : mkvmerge v5.8.0 ('No Sleep / Pillow') built on Sep 2 2012 15:37:04
Библиотека кодирования : libebml v1.2.3 + libmatroska v1.3.0
Видео
Идентификатор : 1
Формат : AVC
Формат/Информация : Advanced Video Codec
Профиль формата : High@L4.1
Параметр CABAC формата : Да
Параметр ReFrames формата : 15 кадров
Идентификатор кодека : V_MPEG4/ISO/AVC
Продолжительность : 1 ч. 4 м.
Битрейт : 2500 Кбит/сек
Ширина : 704 пикселя
Высота : 572 пикселя
Соотношение сторон : 4:3
Режим частоты кадров : Постоянный
Частота кадров : 25,000 кадров/сек
Цветовое пространство : YUV
Субдискретизация насыщенности : 4:2:0
Битовая глубина : 8 бит
Тип развёртки : Прогрессивная
Бит/(Пиксели*Кадры) : 0.248
Размер потока : 1,10 Гбайт (91%)
Библиотека кодирования : x264 core 148 r2638 7599210
Настройки программы : cabac=1 / ref=15 / deblock=1:-2:-2 / analyse=0x3:0x133 / me=umh / subme=10 / psy=1 / psy_rd=1.05:0.15 / mixed_ref=1 / me_range=32 / chroma_me=1 / trellis=2 / 8x8dct=1 / cqm=0 / deadzone=21,11 / fast_pskip=0 / chroma_qp_offset=-3 / threads=12 / lookahead_threads=2 / sliced_threads=0 / nr=0 / decimate=0 / interlaced=0 / bluray_compat=0 / constrained_intra=0 / bframes=9 / b_pyramid=2 / b_adapt=2 / b_bias=0 / direct=3 / weightb=1 / open_gop=0 / weightp=2 / keyint=250 / keyint_min=25 / scenecut=40 / intra_refresh=0 / rc=2pass / mbtree=0 / bitrate=2500 / ratetol=1.0 / qcomp=0.63 / qpmin=0 / qpmax=39 / qpstep=4 / cplxblur=20.0 / qblur=0.5 / ip_ratio=1.40 / pb_ratio=1.30 / aq=1:1.00
Язык : English
Default : Да
Forced : Нет
Цветовой диапазон : Limited
Основные цвета : BT.601 PAL
Характеристики трансфера : BT.470 System B, BT.470 System G
Коэффициенты матрицы : BT.601
Аудио
Идентификатор : 2
Формат : AC-3
Формат/Информация : Audio Coding 3
Расширение режима : CM (complete main)
Параметр Endianness формата : Big
Идентификатор кодека : A_AC3
Продолжительность : 1 ч. 4 м.
Вид битрейта : Постоянный
Битрейт : 192 Кбит/сек
Каналы : 2 канала
Расположение каналов : Front: L R
Частота : 48,0 КГц
Метод сжатия : С потерями
Задержка видео : 11 мс.
Размер потока : 88,2 Мбайт (7%)
Язык : Russian
Default : Да
Forced : Нет

Релиз от:
Автор релиза:



   Похожие торренты   Торрент   Размер 
В этой теме нет новых непрочитанных сообщений. Смерть под парусом (1976) DVDRip от Киномагии

278 | 12

2.05 ГБ

В этой теме нет новых непрочитанных сообщений. Безотцовщина (1976) SATRip-AVC от ExKinoRay

76 | 10

1.34 ГБ

В этой теме нет новых непрочитанных сообщений. Тимур и его команда (1976) SATRip-AVC от ExKinoRay

321 | 12

2.27 ГБ

В этой теме нет новых непрочитанных сообщений. Меня это не касается (1976) SATRip-AVC от ExKinoRay

301 | 41

1.53 ГБ

В этой теме нет новых непрочитанных сообщений. Белый Бим Чёрное ухо (1976) SATRip-AVC от ExKinoRay

261 | 15

3.31 ГБ

В этой теме нет новых непрочитанных сообщений. ... и другие официальные лица (1976) SATRip-AVC от ExKinoRay

47 | 2

1.18 ГБ

В этой теме нет новых непрочитанных сообщений. Ключ без права передачи (1976) SATRip-AVC от ExKinoRay

53 | 26

1.64 ГБ




Вы не можете начинать темы
Вы не можете отвечать на сообщения
Вы не можете редактировать свои сообщения
Вы не можете удалять свои сообщения
Вы не можете добавлять вложения

Перейти:  
Для Мосгорсуда, Роскомнадзора и рекламодателей: mosgorsud-torrent[собачка]yandex.ru
 Вход
ppkBB3cker v.2 © 2008-2014 @ PPK
[ Time : 0.030s | 14 Queries | GZIP : On ]

Торрент трекер RUTOR.IN, Не можете зайти на rutor.org? Какой новый адрес рутор? Какое зеркало рутор? Не работает rutor.org и зеркала? Тогда наш торрент специально для вас. Rutor.in неофициальное зеркало rutor. В случае если у Вас заблокирован rutor или вдруг Вы не можете на него зайти, то Вы без труда сможете скачать бесплатно и без рекламы последние новинки кино, игр, сериалов и прочего у нас, на Rutor.in. Не нужно использовать прокси, чтобы зайти на рутор, достаточно воспользоваться нашим ресурсом. Все новые фильмы, игры, сериалы, книги и музыка за 2013 и 2014 годы через торрент бесплатно. Скачивайте фильмы в хорошем качестве, игры для пк, xbox, playstation без регистрации. У нас вы найдете новые Зарубежные сериалы и Русские сериалы 2013, 2014, 2015 годов. Оставайтесь с нами, качайте любимые фильмы, игры, сериалы, книги и музыку.