img image001 image001 image001 image001 image001 image001 image001 image001 image001 image001 image001 image001 image001 image001 image001

Planets Sun Sun Sun
Статистика раздачи
Автор: Nickolas3434 | Размер: 1.46 ГБ | Добавлен: 21 май 2016
Раздают: 1146    Качают: 101
Скачать торрент
Скачать торрент
Описание торрента

СообщениеДобавлено: 21 май 2016 


«Вместе мы сила»
Информация о фильме
Название: СуперБобровы
Год выхода: 2016
Жанр: Комедия, семейный
Режиссер: Дмитрий Дьяченко
В ролях: Павел Деревянко, Оксана Акиньшина, Роман Мадянов, Ирина Пегова, Владимир Толоконников, Даниил Вахрушев, Софья Мицкевич, Михаил Шамигулов, Елизавета Кононова, Виталий Кищенко
О фильме:
Вместо десерта на ужин семейство Бобровых получило… метеорит. Настоящий, большой, из космоса. Благодаря ему Бобровы вдруг приобретают немыслимые сверхспособности. Дед становится бессмертным, а отец теперь может телепортироваться. Сын начинает понимать собачий язык, а его сёстры получают суперсилу, возможность летать и быть невидимой. Единственное ограничение — способности действуют только когда вся семейка в сборе.
Короче, у заурядной, среднестатистической ячейки общества появляется шанс превратиться в отряд настоящих супергероев. Вот только вместо того, чтобы спасать мир, они решают ограбить ближайший банк…

Страна: Россия
Студия: Yellow, Black & White
Продолжительность: 01:31:28
Перевод: Не требуется
Файл
Качество: BDRip (исх. СуперБобровы (2016) Blu-ray RUS 1080i AVC DTS-HD 5.1)
Кодек: XviD
Видео: 720x304 (2,35:1), 25 fps, XviD ~1830 kbps avg, 0.334 bit/pixel
Аудио: AC3, 48 kHz, 6 ch, ~448.00 kbps avg
Субтитры: Отсутствуют
Семпл
Общее
Полное имя : SuperBobrovy.(2016).BDRip.avi
Формат : AVI
Формат/Информация : Audio Video Interleave
Размер файла : 1,46 Гбайт
Продолжительность : 1 ч. 31 м.
Общий поток : 2288 Кбит/сек
Программа кодирования : VirtualDubMod 1.5.10.3 (build 2550/release)
Библиотека кодирования : VirtualDubMod build 2550/release
Видео
Идентификатор : 0
Формат : MPEG-4 Visual
Профиль формата : Advanced Simple@L5
Параметр BVOP формата : 2
Параметр QPel формата : Нет
Параметр GMC формата : Без точки перехода
Параметр матрицы формата : Default (MPEG)
Идентификатор кодека : XVID
Идентификатор кодека/Подсказка : XviD
Продолжительность : 1 ч. 31 м.
Битрейт : 1830 Кбит/сек
Ширина : 720 пикселей
Высота : 304 пикселя
Соотношение сторон : 2,35:1
Частота кадров : 25,000 кадров/сек
Цветовое пространство : YUV
Субдискретизация насыщенности : 4:2:0
Битовая глубина : 8 бит
Тип развёртки : Прогрессивная
Метод сжатия : С потерями
Бит/(Пиксели*Кадры) : 0.334
Размер потока : 1,17 Гбайт (80%)
Библиотека кодирования : XviD 73
Аудио
Идентификатор : 1
Формат : AC-3
Формат/Информация : Audio Coding 3
Расширение режима : CM (complete main)
Параметр Endianness формата : Big
Идентификатор кодека : 2000
Продолжительность : 1 ч. 31 м.
Вид битрейта : Постоянный
Битрейт : 448 Кбит/сек
Каналы : 6 каналов
Расположение каналов : Front: L C R, Side: L R, LFE
Частота : 48,0 КГц
Частота кадров : 31,250 кадров/сек (1536 spf)
Метод сжатия : С потерями
Размер потока : 293 Мбайт (20%)
Выравнивание : Разделение по промежуткам
Продолжительность промежутка : 40 мс. (1,00 видеокадр)
Время предзагрузки промежутка : 500 мс.



   Похожие торренты   Торрент   Размер 
В этой теме нет новых непрочитанных сообщений. СуперБобровы (2016) BDRip-AVC от New-Team | Лицензия

434 | 44

2.91 ГБ

В этой теме нет новых непрочитанных сообщений. СуперБобровы (2016) BDRip от HQCLUB | Лицензия

3046 | 77

1.45 ГБ

В этой теме нет новых непрочитанных сообщений. СуперБобровы (2016) BDRip-AVC от ExKinoRay | Лицензия

373 | 12

1.94 ГБ

В этой теме нет новых непрочитанных сообщений. СуперБобровы (2016) BDRip 720p от ExKinoRay | Лицензия

707 | 18

4.05 ГБ

В этой теме нет новых непрочитанных сообщений. СуперБобровы (2016) BDRip 1080p от ExKinoRay | Лицензия

605 | 24

8.05 ГБ

В этой теме нет новых непрочитанных сообщений. СуперБобровы (2016) Blu-Ray | Rus Transfer | Лицензия

64 | 14

18.22 ГБ

В этой теме нет новых непрочитанных сообщений. СуперБобровы (2016) HDRip | КПК | Лицензия

208 | 7

413.27 МБ




Вы не можете начинать темы
Вы не можете отвечать на сообщения
Вы не можете редактировать свои сообщения
Вы не можете удалять свои сообщения
Вы не можете добавлять вложения

Перейти:  
Для Мосгорсуда, Роскомнадзора и рекламодателей: mosgorsud-torrent[собачка]yandex.ru
 Вход
ppkBB3cker v.2 © 2008-2014 @ PPK
[ Time : 0.033s | 17 Queries | GZIP : Off ]

Торрент трекер RUTOR.IN, Не можете зайти на rutor.org? Какой новый адрес рутор? Какое зеркало рутор? Не работает rutor.org и зеркала? Тогда наш торрент специально для вас. Rutor.in неофициальное зеркало rutor. В случае если у Вас заблокирован rutor или вдруг Вы не можете на него зайти, то Вы без труда сможете скачать бесплатно и без рекламы последние новинки кино, игр, сериалов и прочего у нас, на Rutor.in. Не нужно использовать прокси, чтобы зайти на рутор, достаточно воспользоваться нашим ресурсом. Все новые фильмы, игры, сериалы, книги и музыка за 2013 и 2014 годы через торрент бесплатно. Скачивайте фильмы в хорошем качестве, игры для пк, xbox, playstation без регистрации. У нас вы найдете новые Зарубежные сериалы и Русские сериалы 2013, 2014, 2015 годов. Оставайтесь с нами, качайте любимые фильмы, игры, сериалы, книги и музыку.
cron