img image001 image001 image001 image001 image001 image001 image001 image001 image001 image001 image001 image001 image001 image001 image001

Planets Sun Sun Sun
Статистика раздачи
Автор: Nickolas3434 | Размер: 4.05 ГБ | Добавлен: 21 май 2016
Раздают: 707    Качают: 18
Скачать торрент
Скачать торрент
Описание торрента

СообщениеДобавлено: 21 май 2016 


Информация о фильме
Оригинальное название: СуперБобровы
Год выпуска: 2016
Жанр: Комедия, семейный
Выпущено: Россия, KeyStone Production, Yellow, Black and White
Режиссер: Дмитрий Дьяченко
В ролях: Павел Деревянко, Оксана Акиньшина, Роман Мадянов, Владимир Толоконников, Ирина Пегова, Даниил Вахрушев, Софья Мицкевич, Виталий Кищенко, Алексей Хардиков, Андрей Ребенков, Александр Карпиловский, Эльберд Агаев, Анжела Белянская, Павел Ворожцов, Максим Заусалин, Максим Емельянов, Юрий Горин, Александр Егерев, Дмитрий Межевич, Сергей Афанасьев, Владимир Тимофеев, Александр Обласов, Алексей Матошин, Сергей Волобуев, Валерий Панков, Анастасия Попова (II), Анжела Кольцова, Елена Нестерова, Ольга Ергина, Мария Лаврова
О фильме: Вместо десерта на ужин семейство Бобровых получило... метеорит. Настоящий, большой, из космоса. Благодаря ему Бобровы вдруг приобретают немыслимые сверхспособности. Дед становится бессмертным, а отец теперь может телепортироваться. Сын начинает понимать собачий язык, а его сёстры получают суперсилу, возможность летать и быть невидимой. Единственное ограничение - способности действуют только когда вся семейка в сборе. Короче, у заурядной, среднестатистической ячейки общества появляется шанс превратиться в отряд настоящих супергероев. Вот только вместо того, чтобы спасать мир, они решают ограбить ближайший банк…

Файл
Качество: BDRip (720p)
Видео: MPEG-4 AVC, 4185 Кбит/с, 1280x538, 25 кадр/с
Аудио: Русский (AC3, 6 ch, 640 Кбит/с), (DTS, 6 ch, 1509 Кбит/с)
Размер: 4.05 ГБ
Продолжительность: 01:31:28
Язык: Русский
Озвучивание - Лицензия
Сохранены оригинальные чаптеры как на Blu-Ray.
x264 [info]: frame I:1832 Avg QP:17.42 size: 93190
x264 [info]: frame P:36744 Avg QP:20.10 size: 35382
x264 [info]: frame B:98631 Avg QP:21.72 size: 14154
x264 [info]: consecutive B-frames: 4.7% 8.0% 11.0% 30.7% 21.0% 18.5% 4.2% 0.7% 0.7% 0.6%
x264 [info]: mb I I16..4: 6.0% 75.8% 18.2%
x264 [info]: mb P I16..4: 2.0% 20.1% 2.1% P16..4: 30.2% 29.7% 8.6% 1.0% 0.1% skip: 6.1%
x264 [info]: mb B I16..4: 0.4% 2.6% 0.3% B16..8: 33.6% 19.8% 3.3% direct: 8.5% skip:31.4% L0:40.1% L1:43.2% BI:16.7%
x264 [info]: 8x8 transform intra:81.4% inter:63.5%
x264 [info]: direct mvs spatial:99.1% temporal:0.9%
x264 [info]: coded y,uvDC,uvAC intra: 83.7% 88.2% 66.0% inter: 29.9% 37.4% 17.8%
x264 [info]: i16 v,h,dc,p: 31% 18% 4% 47%
x264 [info]: i8 v,h,dc,ddl,ddr,vr,hd,vl,hu: 12% 10% 8% 8% 12% 12% 12% 12% 14%
x264 [info]: i4 v,h,dc,ddl,ddr,vr,hd,vl,hu: 15% 11% 6% 7% 13% 13% 12% 10% 12%
x264 [info]: i8c dc,h,v,p: 37% 24% 19% 20%
x264 [info]: Weighted P-Frames: Y:2.1% UV:0.6%
x264 [info]: ref P L0: 48.9% 12.9% 18.4% 4.9% 4.5% 2.7% 2.7% 1.3% 1.2% 0.9% 0.9% 0.7% 0.1% 0.0%
x264 [info]: ref B L0: 77.7% 10.5% 4.5% 2.4% 1.5% 1.2% 0.9% 0.6% 0.4% 0.3% 0.1%
x264 [info]: ref B L1: 95.1% 4.9%
x264 [info]: kb/s:4178.84

Общее
Уникальный идентификатор : 184017600624226996210540678143021218989 (0x8A70803014967E9B8C874F8B2520FCAD)
Полное имя : D:ЗагрузкиSuperBobrovy.2016.x264.BDRip.(720p).ExKinoRay.mkv
Формат : Matroska
Версия формата : Version 2
Размер файла : 4,05 Гбайт
Продолжительность : 1 ч. 31 м.
Общий поток : 6331 Кбит/сек
Название фильма : СуперБобровы.2016.Rip by: ollan
Дата кодирования : UTC 2016-05-21 06:22:21
Программа кодирования : mkvmerge v5.6.0 ('Kenya Kane') built on May 27 2012 16:44:04
Библиотека кодирования : libebml v1.2.3 + libmatroska v1.3.0
Attachements : Cover - SuperBobrovy..png
Видео
Идентификатор : 1
Формат : AVC
Формат/Информация : Advanced Video Codec
Профиль формата : High@L4.1
Параметр CABAC формата : Да
Параметр ReFrames формата : 12 кадров
Идентификатор кодека : V_MPEG4/ISO/AVC
Продолжительность : 1 ч. 31 м.
Битрейт : 4185 Кбит/сек
Ширина : 1280 пикселей
Высота : 538 пикселей
Соотношение сторон : 2,40:1
Режим частоты кадров : Постоянный
Частота кадров : 25,000 кадров/сек
Цветовое пространство : YUV
Субдискретизация насыщенности : 4:2:0
Битовая глубина : 8 бит
Тип развёртки : Прогрессивная
Бит/(Пиксели*Кадры) : 0.243
Размер потока : 2,59 Гбайт (64%)
Библиотека кодирования : x264 core 146 r2538 121396c
Настройки программы : cabac=1 / ref=12 / deblock=1:-3:-3 / analyse=0x3:0x133 / me=umh / subme=11 / psy=1 / psy_rd=1.00:0.10 / mixed_ref=1 / me_range=48 / chroma_me=1 / trellis=2 / 8x8dct=1 / cqm=0 / deadzone=21,11 / fast_pskip=0 / chroma_qp_offset=-3 / threads=12 / lookahead_threads=2 / sliced_threads=0 / nr=0 / decimate=0 / interlaced=0 / bluray_compat=0 / constrained_intra=0 / bframes=9 / b_pyramid=2 / b_adapt=2 / b_bias=0 / direct=3 / weightb=1 / open_gop=0 / weightp=2 / keyint=250 / keyint_min=25 / scenecut=40 / intra_refresh=0 / rc_lookahead=40 / rc=2pass / mbtree=0 / bitrate=4185 / ratetol=1.0 / qcomp=0.60 / qpmin=0 / qpmax=69 / qpstep=4 / cplxblur=20.0 / qblur=0.5 / vbv_maxrate=50000 / vbv_bufsize=62500 / nal_hrd=none / filler=0 / ip_ratio=1.40 / pb_ratio=1.30 / aq=1:1.00
Язык : Russian
Default : Да
Forced : Нет
Аудио #1
Идентификатор : 2
Формат : AC-3
Формат/Информация : Audio Coding 3
Расширение режима : CM (complete main)
Параметр Endianness формата : Big
Идентификатор кодека : A_AC3
Продолжительность : 1 ч. 31 м.
Вид битрейта : Постоянный
Битрейт : 640 Кбит/сек
Каналы : 6 каналов
Расположение каналов : Front: L C R, Side: L R, LFE
Частота : 48,0 КГц
Частота кадров : 31,250 кадров/сек (1536 spf)
Метод сжатия : С потерями
Размер потока : 419 Мбайт (10%)
Заголовок : Лицензия
Язык : Russian
Default : Да
Forced : Нет
Аудио #2
Идентификатор : 3
Формат : DTS
Формат/Информация : Digital Theater Systems
Режим : 16
Параметр Endianness формата : Big
Идентификатор кодека : A_DTS
Продолжительность : 1 ч. 31 м.
Вид битрейта : Постоянный
Битрейт : 1509 Кбит/сек
Каналы : 6 каналов
Расположение каналов : Front: L C R, Side: L R, LFE
Частота : 48,0 КГц
Частота кадров : 93,750 кадра/сек (512 spf)
Битовая глубина : 24 бит
Метод сжатия : С потерями
Размер потока : 987 Мбайт (24%)
Заголовок : Лицензия
Язык : Russian
Default : Нет
Forced : Нет
Меню
00:00:00.000 : ru:Chapter 01
00:01:06.600 : ru:Chapter 02
00:11:08.880 : ru:Chapter 03
00:22:22.240 : ru:Chapter 04
00:33:08.680 : ru:Chapter 05
00:44:41.280 : ru:Chapter 06
00:56:54.600 : ru:Chapter 07
01:10:51.040 : ru:Chapter 08
01:21:54.840 : ru:Chapter 09





Релиз от: Rip by:



   Похожие торренты   Торрент   Размер 
В этой теме нет новых непрочитанных сообщений. СуперБобровы (2016) BDRip-AVC от ExKinoRay | Лицензия

373 | 12

1.94 ГБ

В этой теме нет новых непрочитанных сообщений. СуперБобровы (2016) BDRip 1080p от ExKinoRay | Лицензия

605 | 24

8.05 ГБ

В этой теме нет новых непрочитанных сообщений. СуперБобровы (2016) BDRip | Лицензия

1146 | 101

1.46 ГБ

В этой теме нет новых непрочитанных сообщений. СуперБобровы (2016) BDRip от HQCLUB | Лицензия

3046 | 77

1.45 ГБ

В этой теме нет новых непрочитанных сообщений. СуперБобровы (2016) BDRip-AVC от New-Team | Лицензия

434 | 44

2.91 ГБ

В этой теме нет новых непрочитанных сообщений. СуперБобровы (2015) BDRip 720p от HELLYWOOD | Лицензия

212 | 16

4.37 ГБ

В этой теме нет новых непрочитанных сообщений. СуперБобровы (2016) BDRip 720p от Leonardo

0 | 127

3.26 ГБ




Вы не можете начинать темы
Вы не можете отвечать на сообщения
Вы не можете редактировать свои сообщения
Вы не можете удалять свои сообщения
Вы не можете добавлять вложения

Перейти:  
Для Мосгорсуда, Роскомнадзора и рекламодателей: mosgorsud-torrent[собачка]yandex.ru
 Вход
ppkBB3cker v.2 © 2008-2014 @ PPK
[ Time : 0.101s | 14 Queries | GZIP : Off ]

Торрент трекер RUTOR.IN, Не можете зайти на rutor.org? Какой новый адрес рутор? Какое зеркало рутор? Не работает rutor.org и зеркала? Тогда наш торрент специально для вас. Rutor.in неофициальное зеркало rutor. В случае если у Вас заблокирован rutor или вдруг Вы не можете на него зайти, то Вы без труда сможете скачать бесплатно и без рекламы последние новинки кино, игр, сериалов и прочего у нас, на Rutor.in. Не нужно использовать прокси, чтобы зайти на рутор, достаточно воспользоваться нашим ресурсом. Все новые фильмы, игры, сериалы, книги и музыка за 2013 и 2014 годы через торрент бесплатно. Скачивайте фильмы в хорошем качестве, игры для пк, xbox, playstation без регистрации. У нас вы найдете новые Зарубежные сериалы и Русские сериалы 2013, 2014, 2015 годов. Оставайтесь с нами, качайте любимые фильмы, игры, сериалы, книги и музыку.