img image001 image001 image001 image001 image001 image001 image001 image001 image001 image001 image001 image001 image001 image001 image001

Planets Sun Sun Sun
Статистика раздачи
Автор: Nickolas3434 | Размер: 2.91 ГБ | Добавлен: 21 май 2016
Раздают: 463    Качают: 44
Скачать торрент
Скачать торрент
Описание торрента

СообщениеДобавлено: 21 май 2016 

СуперБобровы
«Вместе мы сила»


Страна: Россия
Жанр: комедия, семейный
Год выпуска: 2016
Продолжительность: 01:31:28
Перевод: Не требуется
Cубтитры: нет
Оригинальная аудиодорожка: русский
Режиссер: Дмитрий Дьяченко
В ролях: Павел Деревянко, Оксана Акиньшина, Роман Мадянов, Ирина Пегова, Владимир Толоконников, Даниил Вахрушев, Софья Мицкевич, Михаил Шамигулов, Елизавета Кононова, Виталий Кищенко, Алексей Хардиков, Андрей Ребенков
Описание:
Вместо десерта на ужин семейство Бобровых получило... метеорит. Настоящий, большой, из космоса. Благодаря ему Бобровы вдруг приобретают немыслимые сверхспособности. Дед становится бессмертным, а отец теперь может телепортироваться. Сын начинает понимать собачий язык, а его сёстры получают суперсилу, возможность летать и быть невидимой. Единственное ограничение - способности действуют только когда вся семейка в сборе.
Короче, у заурядной, среднестатистической ячейки общества появляется шанс превратиться в отряд настоящих супергероев. Вот только вместо того, чтобы спасать мир, они решают ограбить ближайший банк...

Релиз:
Автор рипа: Stalker oK
Сэмпл
Качество видео: BDRip-AVC [СуперБобровы (2016) Blu-ray RUS 1080i AVC DTS-HD 5.1-HDCLUB]
Формат видео: MKV
Видео кодек: AVC
Аудио кодек: AC3
Видео: 4110 Кбит/сек, 1152*484 (2,40:1), в 25,000 кадров/сек, AVC
Аудио: русский, 448 Кбит/сек, 48,0 КГц, 6 каналов, AC-3 [Blu-ray]
Навигация по главам: есть

Общее
Уникальный идентификатор : 247910133680588643477223909866424655882 (0xBA81C1477FEC4A9BB13A65D8AF26600A)
Полное имя : M:1RipsSuperBobrovyСуперБобровы.2016.BDRip-AVC.2.91Gb.stalkerok.new-team.mkv
Формат : Matroska
Версия формата : Version 4 / Version 2
Размер файла : 2,91 Гбайт
Продолжительность : 1 ч. 31 м.
Общий поток : 4560 Кбит/сек
Название фильма : СуперБобровы (2016) (New-Team) (Rip by stalkerok)
Дата кодирования : UTC 2016-05-21 09:00:30
Программа кодирования : mkvmerge v8.6.1 ('Flying') 64bit
Библиотека кодирования : libebml v1.3.3 + libmatroska v1.4.4
Видео
Идентификатор : 1
Формат : AVC
Формат/Информация : Advanced Video Codec
Профиль формата : High@L4.1
Параметр CABAC формата : Да
Параметр ReFrames формата : 13 кадров
Идентификатор кодека : V_MPEG4/ISO/AVC
Продолжительность : 1 ч. 31 м.
Битрейт : 4110 Кбит/сек
Ширина : 1152 пикселя
Высота : 484 пикселя
Соотношение сторон : 2,40:1
Режим частоты кадров : Постоянный
Частота кадров : 25,000 кадров/сек
Цветовое пространство : YUV
Субдискретизация насыщенности : 4:2:0
Битовая глубина : 8 бит
Тип развёртки : Прогрессивная
Бит/(Пиксели*Кадры) : 0.295
Размер потока : 2,63 Гбайт (90%)
Заголовок : СуперБобровы (2016) (New-Team) (Rip by stalkerok)
Библиотека кодирования : x264 core 148 r2665kMod a01e339
Настройки программы : cabac=1 / ref=13 / deblock=1:-3:-2 / analyse=0x3:0x133 / me=umh / subme=10 / psy=1 / fade_compensate=0.00 / psy_rd=1.00:0.00 / mixed_ref=1 / me_range=32 / chroma_me=1 / trellis=2 / 8x8dct=1 / cqm=0 / deadzone=21,11 / fast_pskip=0 / chroma_qp_offset=-2 / threads=12 / lookahead_threads=3 / sliced_threads=0 / nr=0 / decimate=0 / interlaced=0 / bluray_compat=0 / constrained_intra=0 / fgo=0 / bframes=13 / b_pyramid=2 / b_adapt=2 / b_bias=0 / direct=3 / weightb=1 / open_gop=0 / weightp=2 / keyint=250 / keyint_min=25 / scenecut=40 / intra_refresh=0 / rc_lookahead=60 / rc=2pass / mbtree=0 / bitrate=4110 / ratetol=1.0 / qcomp=0.65 / qpmin=0 / qpmax=69 / qpstep=4 / cplxblur=20.0 / qblur=0.5 / vbv_maxrate=50000 / vbv_bufsize=62500 / nal_hrd=none / filler=0 / ip_ratio=1.40 / pb_ratio=1.30 / aq=1:0.85
Default : Да
Forced : Нет
Аудио
Идентификатор : 2
Формат : AC-3
Формат/Информация : Audio Coding 3
Расширение режима : CM (complete main)
Параметр Endianness формата : Big
Идентификатор кодека : A_AC3
Продолжительность : 1 ч. 31 м.
Вид битрейта : Постоянный
Битрейт : 448 Кбит/сек
Каналы : 6 каналов
Расположение каналов : Front: L C R, Side: L R, LFE
Частота : 48,0 КГц
Частота кадров : 31,250 кадров/сек (1536 spf)
Метод сжатия : С потерями
Размер потока : 293 Мбайт (10%)
Язык : Russian
Default : Да
Forced : Нет
Меню
00:00:00.000 : en:Chapter 1
00:01:06.600 : en:Chapter 2
00:11:08.880 : en:Chapter 3
00:22:22.240 : en:Chapter 4
00:33:08.680 : en:Chapter 5
00:44:41.280 : en:Chapter 6
00:56:54.600 : en:Chapter 7
01:10:51.040 : en:Chapter 8
01:21:54.840 : en:Chapter 9





   Похожие торренты   Торрент   Размер 
В этой теме нет новых непрочитанных сообщений. СуперБобровы (2016) BDRip | Лицензия

1146 | 101

1.46 ГБ

В этой теме нет новых непрочитанных сообщений. СуперБобровы (2016) BDRip от HQCLUB | Лицензия

3234 | 64

1.45 ГБ

В этой теме нет новых непрочитанных сообщений. СуперБобровы (2016) BDRip-AVC от ExKinoRay | Лицензия

386 | 12

1.94 ГБ

В этой теме нет новых непрочитанных сообщений. СуперБобровы (2016) BDRip 1080p от ExKinoRay | Лицензия

652 | 26

8.05 ГБ

В этой теме нет новых непрочитанных сообщений. СуперБобровы (2016) BDRip 720p от ExKinoRay | Лицензия

748 | 19

4.05 ГБ

В этой теме нет новых непрочитанных сообщений. СуперБобровы (2016) Blu-Ray | Rus Transfer | Лицензия

68 | 14

18.22 ГБ

В этой теме нет новых непрочитанных сообщений. СуперБобровы (2016) HDRip | КПК | Лицензия

236 | 5

413.27 МБ




Вы не можете начинать темы
Вы не можете отвечать на сообщения
Вы не можете редактировать свои сообщения
Вы не можете удалять свои сообщения
Вы не можете добавлять вложения

Перейти:  
Для Мосгорсуда, Роскомнадзора и рекламодателей: mosgorsud-torrent[собачка]yandex.ru
 Вход
ppkBB3cker v.2 © 2008-2014 @ PPK
[ Time : 0.024s | 17 Queries | GZIP : Off ]

Торрент трекер RUTOR.IN, Не можете зайти на rutor.org? Какой новый адрес рутор? Какое зеркало рутор? Не работает rutor.org и зеркала? Тогда наш торрент специально для вас. Rutor.in неофициальное зеркало rutor. В случае если у Вас заблокирован rutor или вдруг Вы не можете на него зайти, то Вы без труда сможете скачать бесплатно и без рекламы последние новинки кино, игр, сериалов и прочего у нас, на Rutor.in. Не нужно использовать прокси, чтобы зайти на рутор, достаточно воспользоваться нашим ресурсом. Все новые фильмы, игры, сериалы, книги и музыка за 2013 и 2014 годы через торрент бесплатно. Скачивайте фильмы в хорошем качестве, игры для пк, xbox, playstation без регистрации. У нас вы найдете новые Зарубежные сериалы и Русские сериалы 2013, 2014, 2015 годов. Оставайтесь с нами, качайте любимые фильмы, игры, сериалы, книги и музыку.