img image001 image001 image001 image001 image001 image001 image001 image001 image001 image001 image001 image001 image001 image001 image001

Planets Sun Sun Sun
Статистика раздачи
Автор: Nickolas3434 | Размер: 2.85 ГБ | Добавлен: 24 май 2016
Раздают: 74    Качают: 8
Скачать торрент
Скачать торрент
Описание торрента

СообщениеДобавлено: 24 май 2016 


Информация о фильме
Название: Черная роза - эмблема печали, красная роза - эмблема любви
Год выхода: 1989
Жанр: Комедия, мелодрама
Режиссер: Сергей Соловьёв
В ролях: Татьяна Друбич, Александр Абдулов, Михаил Розанов, Александр Збруев, Людмила Савельева, Илья Иванов, Александр Баширов, Михаил Данилов, Борис Гребенщиков, Ассан Куйятте, Георгий Саакян, Юрий Шумило, Виктор Бешляга, Валерий Бурташов, Светлана Дзасухова, Анна Соловьева
О фильме:
Вторая часть трилогии режиссёра Сергей Соловьёва «Асса», «Чёрная роза — эмблема печали, красная роза — эмблема любви», «Дом под звёздным небом». Весёлый и глубокий фильм о маразме нашей жизни, о том, как "человечество", смеясь, расстаётся со своим прошлым. Саркастическая мелодрама и авангардный кино-сейшн, сюрная комедия и страшный "соц" (по определению авторов), она для 15-летних и 40-летних, бедных и богатых, верующих и атеистов. Герои фильма - 15-летний миллионер, комсомолец и дворянин, а также арбатская красавица, лимитчик-диссидент и элегантный супермен разыгрывают историю нашей жизни - трагическую, но полную оптимизма.
Страна: СССР, Мосфильм, Творческое объединение «Круг»
Продолжительность: 01:00:54 + 01:10:43
Перевод: не требуется
Файл
Кодек: x264
Качество: DVDRip-AVC
Видео: MPEG-4 AVC, 2650 Кбит/с, 712x572@759x572
Звук: AC3, 6 ch, 448 Кбит/с

raw [info]: 712x572p 16:15 @ 25/1 fps (cfr)
x264 [info]: using SAR=16/15
x264 [info]: using cpu capabilities: MMX2 SSE2Fast SSSE3 SSE4.2 AVX
x264 [info]: profile High, level 4.1
x264 [info]: frame I:464 Avg QP:15.85 size: 74237
x264 [info]: frame P:21244 Avg QP:18.66 size: 30987
x264 [info]: frame B:69642 Avg QP:21.61 size: 7432
====================================================
Общее
Уникальный идентификатор : 199796848437032930438898619108524580334 (0x964F792B7E555453B6B2BFACBE545DEE)
Полное имя : R:МОИ РИПЫЧёрная роза-эмблема печали_1989-DVDRip-AVCЭмблема печали-1.mkv
Формат : Matroska
Версия формата : Version 2
Размер файла : 1,32 Гбайт
Продолжительность : 1 ч. 0 м.
Общий поток : 3100 Кбит/сек
Дата кодирования : UTC 2016-05-23 03:27:30
Программа кодирования : mkvmerge v5.8.0 ('No Sleep / Pillow') built on Sep 2 2012 15:37:04
Библиотека кодирования : libebml v1.2.3 + libmatroska v1.3.0
Видео
Идентификатор : 1
Формат : AVC
Формат/Информация : Advanced Video Codec
Профиль формата : High@L4.1
Параметр CABAC формата : Да
Параметр ReFrames формата : 15 кадров
Идентификатор кодека : V_MPEG4/ISO/AVC
Продолжительность : 1 ч. 0 м.
Битрейт : 2650 Кбит/сек
Ширина : 712 пикселей
Высота : 572 пикселя
Соотношение сторон : 4:3
Соотношение сторон в оригинале : 4:3
Режим частоты кадров : Постоянный
Частота кадров : 25,000 кадров/сек
Цветовое пространство : YUV
Субдискретизация насыщенности : 4:2:0
Битовая глубина : 8 бит
Тип развёртки : Прогрессивная
Бит/(Пиксели*Кадры) : 0.260
Размер потока : 1,10 Гбайт (84%)
Библиотека кодирования : x264 core 148 r2638 7599210
Настройки программы : cabac=1 / ref=15 / deblock=1:-2:-2 / analyse=0x3:0x133 / me=umh / subme=10 / psy=1 / psy_rd=1.05:0.15 / mixed_ref=1 / me_range=32 / chroma_me=1 / trellis=2 / 8x8dct=1 / cqm=0 / deadzone=21,11 / fast_pskip=0 / chroma_qp_offset=-3 / threads=12 / lookahead_threads=3 / sliced_threads=0 / nr=0 / decimate=0 / interlaced=0 / bluray_compat=0 / constrained_intra=0 / bframes=10 / b_pyramid=2 / b_adapt=2 / b_bias=0 / direct=3 / weightb=1 / open_gop=0 / weightp=2 / keyint=250 / keyint_min=25 / scenecut=40 / intra_refresh=0 / rc_lookahead=60 / rc=2pass / mbtree=1 / bitrate=2650 / ratetol=1.0 / qcomp=0.70 / qpmin=0 / qpmax=39 / qpstep=4 / cplxblur=20.0 / qblur=0.5 / ip_ratio=1.35 / aq=1:1.00
Язык : English
Default : Да
Forced : Нет
Цветовой диапазон : Limited
Основные цвета : BT.601 NTSC
Характеристики трансфера : BT.601
Коэффициенты матрицы : BT.601
Аудио
Идентификатор : 2
Формат : AC-3
Формат/Информация : Audio Coding 3
Расширение режима : CM (complete main)
Параметр Endianness формата : Big
Идентификатор кодека : A_AC3
Продолжительность : 1 ч. 0 м.
Вид битрейта : Постоянный
Битрейт : 448 Кбит/сек
Каналы : 6 каналов
Расположение каналов : Front: L C R, Side: L R, LFE
Частота : 48,0 КГц
Метод сжатия : С потерями
Размер потока : 195 Мбайт (14%)
Default : Да
Forced : Нет
Меню
00:00:00.000 : ru:Chapter 1
00:03:52.320 : ru:Chapter 2
00:11:32.280 : ru:Chapter 3
00:15:18.840 : ru:Chapter 4
00:21:55.000 : ru:Chapter 5
00:27:08.440 : ru:Chapter 6
00:33:00.680 : ru:Chapter 7
00:41:12.800 : ru:Chapter 8
00:44:50.240 : ru:Chapter 9
00:48:44.440 : ru:Chapter 10
00:53:37.720 : ru:Chapter 11
00:57:43.120 : ru:Chapter 12

Релиз от:
Автор релиза:



   Похожие торренты   Торрент   Размер 
В этой теме нет новых непрочитанных сообщений. Черная роза - эмблема печали, красная роза - эмблема любви (1989) DVDRip

56 | 9

1.38 ГБ

В этой теме нет новых непрочитанных сообщений. Черная роза - эмблема печали, красная роза - эмблема любви (1989) DVDRip

163 | 9

2.05 ГБ

В этой теме нет новых непрочитанных сообщений. Черная роза - эмблема печали, красная роза - эмблема любви (1989) DVD9

55 | 26

7.12 ГБ

В этой теме нет новых непрочитанных сообщений. Алая роза / Красная роза / La rose rouge (1951) DVDRip | Sub

25 | 10

1.09 ГБ

В этой теме нет новых непрочитанных сообщений. Черная роза / Black Rose (2014) DVDRip-AVC от ExKinoRay | Лицензия

435 | 21

1.45 ГБ

В этой теме нет новых непрочитанных сообщений. Стивен Кинг - Роза Марена (Мареновая роза) (1995) (2006) MP3

19 | 5

560.76 МБ

В этой теме нет новых непрочитанных сообщений. Стивен Кинг - Роза Марена (Мареновая роза) (2015) MP3

28 | 1

1.06 ГБ




Вы не можете начинать темы
Вы не можете отвечать на сообщения
Вы не можете редактировать свои сообщения
Вы не можете удалять свои сообщения
Вы не можете добавлять вложения

Перейти:  
Для Мосгорсуда, Роскомнадзора и рекламодателей: mosgorsud-torrent[собачка]yandex.ru
 Вход
ppkBB3cker v.2 © 2008-2014 @ PPK
[ Time : 283.255s | 13 Queries | GZIP : Off ]
CGP output time : 0.019s | 5 Queries | GZIP : Off

Торрент трекер RUTOR.IN, Не можете зайти на rutor.org? Какой новый адрес рутор? Какое зеркало рутор? Не работает rutor.org и зеркала? Тогда наш торрент специально для вас. Rutor.in неофициальное зеркало rutor. В случае если у Вас заблокирован rutor или вдруг Вы не можете на него зайти, то Вы без труда сможете скачать бесплатно и без рекламы последние новинки кино, игр, сериалов и прочего у нас, на Rutor.in. Не нужно использовать прокси, чтобы зайти на рутор, достаточно воспользоваться нашим ресурсом. Все новые фильмы, игры, сериалы, книги и музыка за 2013 и 2014 годы через торрент бесплатно. Скачивайте фильмы в хорошем качестве, игры для пк, xbox, playstation без регистрации. У нас вы найдете новые Зарубежные сериалы и Русские сериалы 2013, 2014, 2015 годов. Оставайтесь с нами, качайте любимые фильмы, игры, сериалы, книги и музыку.