img image001 image001 image001 image001 image001 image001 image001 image001 image001 image001 image001 image001 image001 image001 image001

Planets Sun Sun Sun
Статистика раздачи
Автор: Nickolas3434 | Размер: 17.93 ГБ | Добавлен: 26 май 2016
Раздают: 39    Качают: 5
Скачать торрент
Скачать торрент
Описание торрента

СообщениеДобавлено: 26 май 2016 


Информация о фильме
Название: Мафия: Игра на выживание
Год выхода: 2015
Жанр: Фантастика, боевик
Режиссер: Сарик Андреасян
В ролях: Виктор Вержбицкий, Вениамин Смехов, Юрий Чурсин, Вячеслав Разбегаев, Ольга Тумайкина, Андрей Чадов, Вадим Цаллати, Виолетта Гетманская, Наталья Рудова, Евгений Коряковский
О фильме:
Москва. Далекое будущее. Карточная игра МАФИЯ стала самым популярным в мире телешоу. Одиннадцать человек соберутся за столом, чтобы выяснить — кто из них Мирный Житель, а кто безжалостная МАФИЯ. На глазах всего мира готовится коктейль из эмоций и чувств: хитрости, страха, лжи, ненависти, презрения, боли, гордости, страсти, любви и смерти. Ведь выигравший в схватке получит огромный денежный приз, а проигравший просто умрет...

Страна: Россия
Студия: Enjoy Movies, Renovatio ent.
Продолжительность: 01:31:06
Файл
Кодек: MPEG-4
Качество: BDRemux 1080p
Видео: 1920x1080, 19.7 Mbit/s, 23.976 fps
Звук:
Аудио #01: 48 kHz, DTS-HD MA, 5.1, 4205 Kbps |
Аудио #02: 48 kHz, DTS-HD MA, 5.1, 4222 kbps|
Релиз от: Автор релиза:

General
Unique ID : 235212079482785998246123919214149885195 (0xB0F432DF090A5ADB8836EC7C6317DD0B)
Complete name : F:VideoSurvival.Game.2015.BDREMUX.1080p.ExKinoRay.mkv
Format : Matroska
Format version : Version 4 / Version 2
File size : 17.9 GiB
Duration : 1h 31mn
Overall bit rate mode : Variable
Overall bit rate : 28.2 Mbps
Movie name : Survival.Game.2015.BDREMUX.1080p.ExKinoRay
Encoded date : UTC 2016-05-25 02:59:23
Writing application : mkvmerge v8.3.0 ('Over the Horizon') 64bit
Writing library : libebml v1.3.1 + libmatroska v1.4.2
Video
ID : 1
Format : AVC
Format/Info : Advanced Video Codec
Format profile : High@L4.1
Format settings, CABAC : Yes
Format settings, ReFrames : 2 frames
Format settings, GOP : M=1, N=10
Codec ID : V_MPEG4/ISO/AVC
Duration : 1h 31mn
Bit rate mode : Variable
Bit rate : 19.7 Mbps
Width : 1 920 pixels
Height : 1 080 pixels
Display aspect ratio : 16:9
Frame rate mode : Constant
Frame rate : 23.976 (24000/1001) fps
Color space : YUV
Chroma subsampling : 4:2:0
Bit depth : 8 bits
Scan type : Progressive
Bits/(Pixel*Frame) : 0.397
Stream size : 12.6 GiB (70%)
Language : Russian
Default : Yes
Forced : No
Audio #1
ID : 2
Format : DTS
Format/Info : Digital Theater Systems
Format profile : MA / Core
Mode : 16
Format settings, Endianness : Big
Codec ID : A_DTS
Duration : 1h 31mn
Bit rate mode : Variable / Constant
Bit rate : 4 205 Kbps / 1 509 Kbps
Channel(s) : 6 channels
Channel positions : Front: L C R, Side: L R, LFE
Sampling rate : 48.0 KHz
Frame rate : 93.750 fps (512 spf)
Bit depth : 24 bits
Compression mode : Lossless / Lossy
Stream size : 2.68 GiB (15%)
Language : Russian
Default : Yes
Forced : No
Audio #2
ID : 3
Format : DTS
Format/Info : Digital Theater Systems
Format profile : MA / Core
Mode : 16
Format settings, Endianness : Big
Codec ID : A_DTS
Duration : 1h 31mn
Bit rate mode : Variable / Constant
Bit rate : 4 222 Kbps / 1 509 Kbps
Channel(s) : 6 channels
Channel positions : Front: L C R, Side: L R, LFE
Sampling rate : 48.0 KHz
Frame rate : 93.750 fps (512 spf)
Bit depth : 24 bits
Compression mode : Lossless / Lossy
Stream size : 2.69 GiB (15%)
Language : German
Default : No
Forced : No



   Похожие торренты   Торрент   Размер 
В этой теме нет новых непрочитанных сообщений. Мафия: Игра на выживание (2015) BDRip 1080p от ExKinoRay | Лицензия

110 | 7

10.66 ГБ

В этой теме нет новых непрочитанных сообщений. Мафия: Игра на выживание (2015) BDRip от ExKinoRay | Лицензия

53 | 1

1.46 ГБ

В этой теме нет новых непрочитанных сообщений. Мафия: Игра на выживание (2015) BDRip-AVC от ExKinoRay | Лицензия

154 | 6

1.53 ГБ

В этой теме нет новых непрочитанных сообщений. Мафия: Игра на выживание / Survival Game (2015) BDRip 1080p от Ash61 | 3D-Video | halfOU

127 | 11

6.82 ГБ

В этой теме нет новых непрочитанных сообщений. Мафия: Игра на выживание (2016) WEB-DL 1080p | iTunes

9213 | 208

3.05 ГБ

В этой теме нет новых непрочитанных сообщений. Мафия: Игра на выживание (2016) BDRip 1080p | Лицензия

137 | 4

7.41 ГБ

В этой теме нет новых непрочитанных сообщений. Мафия: Игра на выживание (2015) WEB-DL 720p | iTunes

5094 | 93

2.81 ГБ




Вы не можете начинать темы
Вы не можете отвечать на сообщения
Вы не можете редактировать свои сообщения
Вы не можете удалять свои сообщения
Вы не можете добавлять вложения

Перейти:  
Для Мосгорсуда, Роскомнадзора и рекламодателей: mosgorsud-torrent[собачка]yandex.ru
 Вход
ppkBB3cker v.2 © 2008-2014 @ PPK
[ Time : 0.038s | 17 Queries | GZIP : Off ]

cron