img image001 image001 image001 image001 image001 image001 image001 image001 image001 image001 image001 image001 image001 image001 image001

Planets Sun Sun Sun
Статистика раздачи
Автор: Nickolas3434 | Размер: 1.36 ГБ | Добавлен: 28 май 2016
Раздают: 42    Качают: 14
Скачать торрент
Скачать торрент
Описание торрента

СообщениеДобавлено: 28 май 2016 


Сердца бумеранг
Страна: Россия
Год выпуска: 2011
Жанр: драма
Продолжительность: 01:31:44
Режиссер: Николай Хомерики
Авторы сценария: Александр Родионов, Николай Хомерики
В ролях: Александр Яценко, Наталья Батрак, Клавдия Коршунова, Павел Петров, Игорь Волков, Александр Ильин, Екатерина Семенова, Рената Литвинова
Описание: Косте 23, он работает помощником машиниста в метро. Однажды врач говорит Косте, что у него больное сердце и он может умереть в любой момент. Костя решает никому не говорить о своей болезни. Он пытается жить как раньше, но всё чаще размышляет о смысле жизни...

Перевод: не требуется (оригинал)
Субтитры: нет

Качество: DVB
Формат: MPEG-PS
Аудио кодек: МР2
Видео: 768@720x576 (4:3), 25.000 fps, ~1 754 kbps avg, 0.169 bit/pixel
Аудио: 48.0 kHz, MPEG Layer 2, 2 ch, ~192 kbps avg
Дата премьеры (мир): 18 ноября 2011
Дата премьеры (РФ): 5 апреля 2012, «Пионер»
ПРИМЕЧАНИЕ: +бонус - вступительное слово о фильме от создателей
General
Полное имя : Сердца бумеранг (2011) DVBСердца бумеранг (2011).mpg
Формат : MPEG-PS
Размер файла : 1,27 Гбайт
Продолжительность : 1 ч. 31 м.
Режим общего битрейта : Переменный
Общий поток : 1986 Кбит/сек
Библиотека кодирования : (c) 1998-2009 Womble Multimedia, Inc. / MPEG Video Wizard (03/2009) / Jun 24 2009
Видео
Идентификатор : 224 (0xE0)
Формат : MPEG Video
Версия формата : Version 2
Профиль формата : Main@Main
Параметр BVOP формата : Да
Параметр матрицы формата : Выборочная
Параметр GOP формата : Variable
Format_Settings_PictureStructure : Frame
Продолжительность : 1 ч. 31 м.
Вид битрейта : Переменный
Битрейт : 1754 Кбит/сек
Максимальный битрейт : 15,0 Мбит/сек
Ширина : 720 пикселей
Высота : 576 пикселей
Соотношение сторон : 4:3
Частота кадров : 25,000 кадров/сек
Стандарт вещания : PAL
Цветовое пространство : YUV
Субдискретизация насыщенности : 4:2:0
Битовая глубина : 8 бит
Тип развёртки : Чересстрочная
Порядок развёртки : Верхнее поле первое
Метод сжатия : С потерями
Бит/(Пиксели*Кадры) : 0.169
Временной код первого кадра : 00:00:00:00
Оригинал временного кода : Group of pictures header
Размер потока : 1,12 Гбайт (88%)
Библиотека кодирования : (c) 1998-2009 Womble Multimedia, Inc. / MPEG Video Wizard (03/2009) / Jun 24 2009
Аудио
Идентификатор : 192 (0xC0)
Формат : MPEG Audio
Версия формата : Version 1
Профиль формата : Layer 2
Продолжительность : 1 ч. 31 м.
Вид битрейта : Постоянный
Битрейт : 192 Кбит/сек
Каналы : 2 канала
Частота : 48,0 КГц
Метод сжатия : С потерями
Размер потока : 126 Мбайт (10%)





   Похожие торренты   Торрент   Размер 
В этой теме нет новых непрочитанных сообщений. Сердца бумеранг (2011) SATRip от torrentfilm

43 | 5

1.37 ГБ

В этой теме нет новых непрочитанных сообщений. Сердца бумеранг (2011) SATRip от torrentfilm

25 | 7

747.12 МБ

В этой теме нет новых непрочитанных сообщений. Бумеранг / Без срока давности. Бумеранг-2 (2011, 2012) DVB от AND03AND

43 | 8

987.95 МБ

В этой теме нет новых непрочитанных сообщений. Сергей Лазарев - Биение сердца. Супершоу 2011 (2011) SATRip

5 | 4

1.37 ГБ

В этой теме нет новых непрочитанных сообщений. Бумеранг (2006) PC

3 | 3

866.59 МБ

В этой теме нет новых непрочитанных сообщений. Бумеранг (2007) DVDRip

149 | 3

1.27 ГБ

В этой теме нет новых непрочитанных сообщений. Бумеранг (2008) DVDRip

198 | 9

1.36 ГБ




Вы не можете начинать темы
Вы не можете отвечать на сообщения
Вы не можете редактировать свои сообщения
Вы не можете удалять свои сообщения
Вы не можете добавлять вложения

Перейти:  
Для Мосгорсуда, Роскомнадзора и рекламодателей: mosgorsud-torrent[собачка]yandex.ru
 Вход
ppkBB3cker v.2 © 2008-2014 @ PPK
[ Time : 0.022s | 14 Queries | GZIP : Off ]

Торрент трекер RUTOR.IN, Не можете зайти на rutor.org? Какой новый адрес рутор? Какое зеркало рутор? Не работает rutor.org и зеркала? Тогда наш торрент специально для вас. Rutor.in неофициальное зеркало rutor. В случае если у Вас заблокирован rutor или вдруг Вы не можете на него зайти, то Вы без труда сможете скачать бесплатно и без рекламы последние новинки кино, игр, сериалов и прочего у нас, на Rutor.in. Не нужно использовать прокси, чтобы зайти на рутор, достаточно воспользоваться нашим ресурсом. Все новые фильмы, игры, сериалы, книги и музыка за 2013 и 2014 годы через торрент бесплатно. Скачивайте фильмы в хорошем качестве, игры для пк, xbox, playstation без регистрации. У нас вы найдете новые Зарубежные сериалы и Русские сериалы 2013, 2014, 2015 годов. Оставайтесь с нами, качайте любимые фильмы, игры, сериалы, книги и музыку.