img image001 image001 image001 image001 image001 image001 image001 image001 image001 image001 image001 image001 image001 image001 image001

Planets Sun Sun Sun
Статистика раздачи
Автор: Nickolas3434 | Размер: 1.33 ГБ | Добавлен: 28 май 2016
Раздают: 93    Качают: 4
Скачать торрент
Скачать торрент
Описание торрента

СообщениеДобавлено: 28 май 2016 


Информация о фильме
Название: Долой коммерцию на любовном фронте, или Услуги по взаимности
Год выхода: 1988
Жанр: Комедия
Режиссер: Михаил Солодухин
В ролях: Галина Петрова, Раиса Мухаметшина, Сергей Арцибашев, Василий Мищенко, Татьяна Аугшкап, Мария Вайсман, Ильхам Ханбудагов, Юрий Кобрин, Ольга Черноок
О фильме:
Комедия по мотивам рассказа М. Зощенко «Не надо спекулировать». Фильм состоит из двух новелл, объединенных общим сюжетом о том, как корыстная жена "одалживает" мужа. Действие первой новеллы происходит во времена НЭПа, второй - в сегодняшней Москве.
Страна: СССР, Мосфильм
Продолжительность: 01:10:51
Перевод: не требуется
Файл
Кодек: x264
Качество: DVDRip-AVC
Видео: MPEG-4 AVC, 2500 Кбит/с, 698x556@744x556
Звук: AC3, 2 ch, 192 Кбит/с

raw [info]: 698x556p 16:15 @ 25/1 fps (cfr)
x264 [info]: using SAR=16/15
x264 [info]: using cpu capabilities: MMX2 SSE2Fast SSSE3 SSE4.2 AVX
x264 [info]: profile High, level 4.1
x264 [info]: frame I:50 Avg QP:14.37 size: 75740
x264 [info]: frame P:524 Avg QP:17.79 size: 28609
x264 [info]: frame B:1960 Avg QP:19.72 size: 6509
================================================================================
Общее
Уникальный идентификатор : 199528133238428506944871721301256549676 (0x961BB87CDB3D69F4A44604270D89B52C)
Полное имя : D:Долой коммерцию на любовном фронте,или услуги по взаимности_1988-DVDRip-AVC.mkv
Формат : Matroska
Версия формата : Version 2
Размер файла : 1,33 Гбайт
Продолжительность : 1 ч. 10 м.
Общий поток : 2694 Кбит/сек
Дата кодирования : UTC 2016-05-25 00:08:53
Программа кодирования : mkvmerge v5.8.0 ('No Sleep / Pillow') built on Sep 2 2012 15:37:04
Библиотека кодирования : libebml v1.2.3 + libmatroska v1.3.0
Видео
Идентификатор : 1
Формат : AVC
Формат/Информация : Advanced Video Codec
Профиль формата : High@L4.1
Параметр CABAC формата : Да
Параметр ReFrames формата : 15 кадров
Идентификатор кодека : V_MPEG4/ISO/AVC
Продолжительность : 1 ч. 10 м.
Битрейт : 2500 Кбит/сек
Ширина : 698 пикселей
Высота : 556 пикселей
Соотношение сторон : 4:3
Соотношение сторон в оригинале : 4:3
Режим частоты кадров : Постоянный
Частота кадров : 25,000 кадров/сек
Цветовое пространство : YUV
Субдискретизация насыщенности : 4:2:0
Битовая глубина : 8 бит
Тип развёртки : Прогрессивная
Бит/(Пиксели*Кадры) : 0.258
Размер потока : 1,21 Гбайт (91%)
Библиотека кодирования : x264 core 148 r2638 7599210
Настройки программы : cabac=1 / ref=15 / deblock=1:-2:-2 / analyse=0x3:0x133 / me=umh / subme=10 / psy=1 / psy_rd=1.05:0.10 / mixed_ref=1 / me_range=32 / chroma_me=1 / trellis=2 / 8x8dct=1 / cqm=0 / deadzone=21,11 / fast_pskip=0 / chroma_qp_offset=-3 / threads=12 / lookahead_threads=3 / sliced_threads=0 / nr=0 / decimate=0 / interlaced=0 / bluray_compat=0 / constrained_intra=0 / bframes=10 / b_pyramid=2 / b_adapt=2 / b_bias=0 / direct=3 / weightb=1 / open_gop=0 / weightp=2 / keyint=250 / keyint_min=25 / scenecut=40 / intra_refresh=0 / rc=2pass / mbtree=0 / bitrate=2500 / ratetol=1.0 / qcomp=0.63 / qpmin=0 / qpmax=39 / qpstep=4 / cplxblur=20.0 / qblur=0.5 / ip_ratio=1.40 / pb_ratio=1.30 / aq=1:0.90
Язык : English
Default : Да
Forced : Нет
Цветовой диапазон : Limited
Основные цвета : BT.601 PAL
Характеристики трансфера : BT.470 System B, BT.470 System G
Коэффициенты матрицы : BT.601
Аудио
Идентификатор : 2
Формат : AC-3
Формат/Информация : Audio Coding 3
Расширение режима : CM (complete main)
Параметр Endianness формата : Big
Идентификатор кодека : A_AC3
Продолжительность : 1 ч. 10 м.
Вид битрейта : Постоянный
Битрейт : 192 Кбит/сек
Каналы : 2 канала
Расположение каналов : Front: L R
Частота : 48,0 КГц
Метод сжатия : С потерями
Размер потока : 97,3 Мбайт (7%)
Язык : Russian
Default : Да
Forced : Нет
Меню
00:00:00.000 : ru:Chapter 1
00:05:02.280 : ru:Chapter 2
00:09:45.320 : ru:Chapter 3
00:16:45.120 : ru:Chapter 4
00:19:12.800 : ru:Chapter 5
00:30:26.560 : ru:Chapter 6
00:37:34.000 : ru:Chapter 7
00:43:45.640 : ru:Chapter 8
00:50:14.440 : ru:Chapter 9
01:04:56.000 : ru:Chapter 10

Релиз от:
Автор релиза:



   Похожие торренты   Торрент   Размер 
В этой теме нет новых непрочитанных сообщений. Долой коммерцию на любовном фронте, или Услуги по взаимности (1988) DVDRip

5 | 4

700.92 МБ

В этой теме нет новых непрочитанных сообщений. Долой коммерцию на любовном фронте, или Услуги по взаимности (1988) DVDRip от Киномагия

4 | 4

800.35 МБ

В этой теме нет новых непрочитанных сообщений. Долой коммерцию на любовном фронте, или Услуги по взаимности (1988) DVD5

19 | 5

4.28 ГБ

В этой теме нет новых непрочитанных сообщений. На западном фронте без перемен / All Quiet on the Western Front (1930) BDRip-AVC от ExKinoRay | P

12 | 5

4.1 ГБ

В этой теме нет новых непрочитанных сообщений. Интимные услуги / Personal Services (1987) DVDRip

2 | 3

1.37 ГБ

В этой теме нет новых непрочитанных сообщений. Долой огуречного короля (1990) DVDRip

0 | 4

956.28 МБ

В этой теме нет новых непрочитанных сообщений. Швейк на фронте / Poslusne hlasim (1957) DVDRip

305 | 9

742.33 МБ




Вы не можете начинать темы
Вы не можете отвечать на сообщения
Вы не можете редактировать свои сообщения
Вы не можете удалять свои сообщения
Вы не можете добавлять вложения

Перейти:  
Для Мосгорсуда, Роскомнадзора и рекламодателей: mosgorsud-torrent[собачка]yandex.ru
 Вход
ppkBB3cker v.2 © 2008-2014 @ PPK
[ Time : 0.047s | 14 Queries | GZIP : Off ]

Торрент трекер RUTOR.IN, Не можете зайти на rutor.org? Какой новый адрес рутор? Какое зеркало рутор? Не работает rutor.org и зеркала? Тогда наш торрент специально для вас. Rutor.in неофициальное зеркало rutor. В случае если у Вас заблокирован rutor или вдруг Вы не можете на него зайти, то Вы без труда сможете скачать бесплатно и без рекламы последние новинки кино, игр, сериалов и прочего у нас, на Rutor.in. Не нужно использовать прокси, чтобы зайти на рутор, достаточно воспользоваться нашим ресурсом. Все новые фильмы, игры, сериалы, книги и музыка за 2013 и 2014 годы через торрент бесплатно. Скачивайте фильмы в хорошем качестве, игры для пк, xbox, playstation без регистрации. У нас вы найдете новые Зарубежные сериалы и Русские сериалы 2013, 2014, 2015 годов. Оставайтесь с нами, качайте любимые фильмы, игры, сериалы, книги и музыку.