img image001 image001 image001 image001 image001 image001 image001 image001 image001 image001 image001 image001 image001 image001 image001

Planets Sun Sun Sun
Статистика раздачи
Автор: Nickolas3434 | Размер: 888.89 МБ | Добавлен: 28 май 2016
Раздают: 35    Качают: 1
Скачать торрент
Скачать торрент
Описание торрента

СообщениеДобавлено: 28 май 2016 


Информация о фильме
Название: Время и семья Конвей
Год выхода: 1984
Жанр: Драма, экранизация
Режиссер: Владимир Басов ст.
В ролях: Владимир Басов ст., Владимир Басов мл., Маргарита Володина, Вероника Изотова, Евгений Леонов, Руфина Нифонтова, Олег Табаков, Ирина Шмелёва, Ирина Скобцева, Алёна Бондарчук, Антон Табаков, Андрей Леонов, Инга Будкевич, Марина Стриженова, Наталья Стриженова, Маша Субботина
О фильме:
Действие происходит в Англии на протяжении 20-ти лет в период между двумя войнами. В фильме исследуются взаимоотношения в некогда богатой буржуазной семье, члены которой, каждый по-своему, переживают крушение своих планов и надежд.Только что закончилась Первая мировая война, и миссис Конвей решила отпраздновать совершеннолетие своей дочери Кей. Поздравить ее собралась вся семья: Кэрол, Мейдж и Хэзел, а так же близкие друзья Джоан и Джералд. Появляется в доме скромный клерк Эрнест Биверс, безнадежно влюбленный в Хэзел. В разгар веселья возвращаются с фронта сыновья миссис Конвей Алэн и Робин. Все были очень счастливы в тот вечер и, казалось, так будет всегда. Но Кей внезапно привидилось их будущее. И оно не было столь безоблачным: Кэрол умрет в юности, Мейдж станет сварливой старой девой, Робин женившись на Джоан, превратится в алкоголика, а Хэзел - в покорную жену тирана Биверса. А финансовые трудности и вовсе сделают некогда счастливых людей врагами...
Страна: СССР, Мосфильм
Продолжительность: 01:23:18
Перевод: не требуется
Файл
Кодек: x264
Качество: SATRip-AVC
Видео: MPEG-4 AVC, 1300 Кбит/с, 698x432@744x432
Звук: AC3, 2 ch, 192 Кбит/с

Общее
Уникальный идентификатор : 230527154282741185476245778320923852848 (0xAD6DEA39B0282BC4879257E8DCB88030)
Полное имя : D:Время и семья Конвей_1984-SATRip-AVC.mkv
Формат : Matroska
Версия формата : Version 2
Размер файла : 889 Мбайт
Продолжительность : 1 ч. 23 м.
Общий поток : 1494 Кбит/сек
Дата кодирования : UTC 2016-03-31 15:09:27
Программа кодирования : mkvmerge v5.8.0 ('No Sleep / Pillow') built on Sep 2 2012 15:37:04
Библиотека кодирования : libebml v1.2.3 + libmatroska v1.3.0
Видео
Идентификатор : 1
Формат : AVC
Формат/Информация : Advanced Video Codec
Профиль формата : High@L4.1
Параметр CABAC формата : Да
Параметр ReFrames формата : 14 кадров
Идентификатор кодека : V_MPEG4/ISO/AVC
Продолжительность : 1 ч. 23 м.
Битрейт : 1300 Кбит/сек
Ширина : 698 пикселей
Высота : 432 пикселя
Соотношение сторон : 1,722
Соотношение сторон в оригинале : 1,723
Режим частоты кадров : Постоянный
Частота кадров : 25,000 кадров/сек
Цветовое пространство : YUV
Субдискретизация насыщенности : 4:2:0
Битовая глубина : 8 бит
Тип развёртки : Прогрессивная
Бит/(Пиксели*Кадры) : 0.172
Размер потока : 757 Мбайт (85%)
Библиотека кодирования : x264 core 148 r2638 7599210
Настройки программы : cabac=1 / ref=14 / deblock=1:-2:-2 / analyse=0x3:0x133 / me=umh / subme=10 / psy=1 / psy_rd=1.05:0.05 / mixed_ref=1 / me_range=32 / chroma_me=1 / trellis=2 / 8x8dct=1 / cqm=0 / deadzone=21,11 / fast_pskip=0 / chroma_qp_offset=-3 / threads=12 / lookahead_threads=2 / sliced_threads=0 / nr=0 / decimate=0 / interlaced=0 / bluray_compat=0 / constrained_intra=0 / bframes=8 / b_pyramid=2 / b_adapt=2 / b_bias=0 / direct=3 / weightb=1 / open_gop=0 / weightp=2 / keyint=250 / keyint_min=25 / scenecut=40 / intra_refresh=0 / rc_lookahead=40 / rc=2pass / mbtree=1 / bitrate=1300 / ratetol=1.0 / qcomp=0.65 / qpmin=0 / qpmax=39 / qpstep=4 / cplxblur=20.0 / qblur=0.5 / ip_ratio=1.33 / aq=1:1.00
Язык : English
Default : Да
Forced : Нет
Цветовой диапазон : Limited
Основные цвета : BT.601 PAL
Характеристики трансфера : BT.470 System B, BT.470 System G
Коэффициенты матрицы : BT.601
Аудио
Идентификатор : 2
Формат : AC-3
Формат/Информация : Audio Coding 3
Расширение режима : CM (complete main)
Параметр Endianness формата : Big
Идентификатор кодека : A_AC3
Продолжительность : 1 ч. 23 м.
Вид битрейта : Постоянный
Битрейт : 192 Кбит/сек
Каналы : 2 канала
Расположение каналов : Front: L R
Частота : 48,0 КГц
Метод сжатия : С потерями
Задержка видео : 8 мс.
Размер потока : 114 Мбайт (13%)
Язык : Russian
Default : Да
Forced : Нет

Релиз от:
Автор релиза:



   Похожие торренты   Торрент   Размер 
В этой теме нет новых непрочитанных сообщений. Колье Шарлотты [01-03 из 03] (1984) SATRip-AVC от ExKinoRay

451 | 39

3.03 ГБ

В этой теме нет новых непрочитанных сообщений. Предел возможного (1984) SATRip-AVC от ExKinoRay

23 | 2

5.85 ГБ

В этой теме нет новых непрочитанных сообщений. Берег его жизни (1984) SATRip-AVC от ExKinoRay

7 | 6

3.51 ГБ

В этой теме нет новых непрочитанных сообщений. Прохиндиада, или бег на месте (1984) SATRip-AVC от ExKinoRay

211 | 7

1.69 ГБ

В этой теме нет новых непрочитанных сообщений. В двух шагах от «Рая» (1984) SATRip от ExKinoRay

30 | 1

1.37 ГБ

В этой теме нет новых непрочитанных сообщений. ТАСС уполномочен заявить... [01-10 из 10] (1984) SATRip-AVC от ExKinoRay

65 | 2

12.52 ГБ

В этой теме нет новых непрочитанных сообщений. Семья 3Д [01-10] (2014) WEB-DLRip от ExKinoRay

167 | 66

2.16 ГБ




Вы не можете начинать темы
Вы не можете отвечать на сообщения
Вы не можете редактировать свои сообщения
Вы не можете удалять свои сообщения
Вы не можете добавлять вложения

Перейти:  
Для Мосгорсуда, Роскомнадзора и рекламодателей: mosgorsud-torrent[собачка]yandex.ru
 Вход
ppkBB3cker v.2 © 2008-2014 @ PPK
[ Time : 0.033s | 15 Queries | GZIP : Off ]

Торрент трекер RUTOR.IN, Не можете зайти на rutor.org? Какой новый адрес рутор? Какое зеркало рутор? Не работает rutor.org и зеркала? Тогда наш торрент специально для вас. Rutor.in неофициальное зеркало rutor. В случае если у Вас заблокирован rutor или вдруг Вы не можете на него зайти, то Вы без труда сможете скачать бесплатно и без рекламы последние новинки кино, игр, сериалов и прочего у нас, на Rutor.in. Не нужно использовать прокси, чтобы зайти на рутор, достаточно воспользоваться нашим ресурсом. Все новые фильмы, игры, сериалы, книги и музыка за 2013 и 2014 годы через торрент бесплатно. Скачивайте фильмы в хорошем качестве, игры для пк, xbox, playstation без регистрации. У нас вы найдете новые Зарубежные сериалы и Русские сериалы 2013, 2014, 2015 годов. Оставайтесь с нами, качайте любимые фильмы, игры, сериалы, книги и музыку.
cron