img image001 image001 image001 image001 image001 image001 image001 image001 image001 image001 image001 image001 image001 image001 image001

Planets Sun Sun Sun
Статистика раздачи
Автор: Nickolas3434 | Размер: 1.21 ГБ | Добавлен: 30 май 2016
Раздают: 73    Качают: 4
Скачать торрент
Скачать торрент
Описание торрента

СообщениеДобавлено: 30 май 2016 


Информация о фильме
Название: Против течения
Год выхода: 1981
Жанр: боевик, приключения
Режиссер: Барас Халзанов
В ролях: Владимир Зайцев, Пётр Вельяминов, Лев Прыгунов, Борис Химичев, Пётр Коробов, Светлана Суховей, Юрий Сорокин, Сергей Балабанов, Владимир Соколов, Виталий Титов
О фильме:
По мотивам ранних произведений А.Фадеева.
1920 год. Дальний Восток оккупирован японцами. Части Красной армии держат оборону по широкому фронту. Один из полков теряет дисциплину и покидает свои позиции. Молодой комиссар пытается его остановить, но полк отступает к Амуру в надежде переправиться на другой берег. Комиссар, оставшись абсолютно один, отправляется в штаб фронта, где получает задание любой ценой вернуть полк. В помощь ему дают единственный пароход Уссурийского флота. Вместе с боевой командой парохода и их Бесстрашным капитаном они приступают к выполнению непростой задачи.
Доп. информация:
Сценаристы: Марк Азов, Валерий Михайловский
Операторы: Юрий Дуринов, Виктор Осенников
Композитор: Владислав Казенин
Художник: Валерий Лукинов
Производство: Свердловская киностудия
Премьера: сентябрь 1981

Исходник для данной раздачи, записан с цифрового наземного канала, т.е. DVB-Т.
Запись потока *.ts с наземного цифрового телеканала "Беларусь 3", ремукс в *.mkv программой VideoReDo.
Синхронизация звука без перекодировки mkvmerge v8.5.1
Страна: СССР
Студия: Свердловская киностудия
Продолжительность: 1:09:31
Файл
Кодек: AVC (H264)
Качество: DVB
Видео: AVC (H264), 720x576 (4:3), 25 fps, 2 191 Kbps
Звук: MP2, 256 kbps, 2 channels, 48 kHz
Семпл
Код:
General
Unique ID                      : 248176543336017783946375068581586155421 (0xBAB5104A173C3579940B64EDAFC2379D)
Complete name                  : D:Новая  земля 2Художественные фильмыПротив течения (1981)Против течения_1981.mkv
Format                         : Matroska
Format version                 : Version 4 / Version 2
File size                      : 1.21 GiB
Duration                       : 1h 9mn
Overall bit rate               : 2 497 Kbps
Encoded date                   : UTC 2016-05-27 22:26:47
Writing application            : mkvmerge v8.5.1 ('Where you lead I will follow') 32bit
Writing library                : libebml v1.3.3 + libmatroska v1.4.4
Video
ID                             : 1
Format                         : AVC
Format/Info                    : Advanced Video Codec
Format profile                 : Main@L3.0
Format settings, CABAC         : Yes
Format settings, ReFrames      : 4 frames
Codec ID                       : V_MPEG4/ISO/AVC
Duration                       : 1h 9mn
Bit rate                       : 2 191 Kbps
Width                          : 720 pixels
Height                         : 576 pixels
Display aspect ratio           : 4:3
Original display aspect ratio  : 4:3
Frame rate mode                : Constant
Frame rate                     : 25.000 fps
Standard                       : PAL
Color space                    : YUV
Chroma subsampling             : 4:2:0
Bit depth                      : 8 bits
Scan type                      : MBAFF
Scan order                     : Top Field First
Bits/(Pixel*Frame)             : 0.211
Stream size                    : 1.06 GiB (88%)
Default                        : Yes
Forced                         : No
Color primaries                : BT.601 PAL
Transfer characteristics       : BT.470 System B, BT.470 System G
Matrix coefficients            : BT.601
Color range                    : Limited
DURATION                       : 01:09:31.240000000
NUMBER_OF_FRAMES               : 104281
NUMBER_OF_BYTES                : 1167350661
_STATISTICS_WRITING_APP        : mkvmerge v8.5.1 ('Where you lead I will follow') 32bit
_STATISTICS_WRITING_DATE_UTC   : 2016-05-27 22:26:47
_STATISTICS_TAGS               : BPS DURATION NUMBER_OF_FRAMES NUMBER_OF_BYTES
Audio
ID                             : 2
Format                         : MPEG Audio
Format version                 : Version 1
Format profile                 : Layer 2
Codec ID                       : A_MPEG/L2
Codec ID/Hint                  : MP2
Duration                       : 1h 9mn
Bit rate mode                  : Constant
Bit rate                       : 256 Kbps
Channel(s)                     : 2 channels
Sampling rate                  : 48.0 KHz
Compression mode               : Lossy
Delay relative to video        : 200ms
Stream size                    : 127 MiB (10%)
Language                       : Russian
Default                        : Yes
Forced                         : No
DURATION                       : 01:09:31.224000000
NUMBER_OF_FRAMES               : 173801
NUMBER_OF_BYTES                : 133479168
_STATISTICS_WRITING_APP        : mkvmerge v8.5.1 ('Where you lead I will follow') 32bit
_STATISTICS_WRITING_DATE_UTC   : 2016-05-27 22:26:47
_STATISTICS_TAGS               : BPS DURATION NUMBER_OF_FRAMES NUMBER_OF_BYTES





   Похожие торренты   Торрент   Размер 
В этой теме нет новых непрочитанных сообщений. Против течения [01-08 из 08] (2004) DVDRip

169 | 55

5.35 ГБ

В этой теме нет новых непрочитанных сообщений. Против течения / Against the Current (2009) DVDRip

8 | 6

1.37 ГБ

В этой теме нет новых непрочитанных сообщений. Против течения / Swimming Upstream (2003) DVDRip-AVC | P

19 | 6

1.99 ГБ

В этой теме нет новых непрочитанных сообщений. Против течения / Swimming Upstream (2003) DVDRip от Scarabey | P

212 | 20

1.45 ГБ

В этой теме нет новых непрочитанных сообщений. Против течения / Swimming Upstream (2000) DVDRip от Scarabey | P

61 | 5

743.84 МБ

В этой теме нет новых непрочитанных сообщений. Саша Монк / Сарказм - Плыть против течения (2014) МР3

3 | 3

40.54 МБ

В этой теме нет новых непрочитанных сообщений. Партизаны против Вермахта [01-08 из 08] (2010) DVB от AND03AND

169 | 29

3.88 ГБ




Вы не можете начинать темы
Вы не можете отвечать на сообщения
Вы не можете редактировать свои сообщения
Вы не можете удалять свои сообщения
Вы не можете добавлять вложения

Перейти:  
Для Мосгорсуда, Роскомнадзора и рекламодателей: mosgorsud-torrent[собачка]yandex.ru
 Вход
ppkBB3cker v.2 © 2008-2014 @ PPK
[ Time : 0.052s | 15 Queries | GZIP : Off ]
CGP output time : 0.016s | 5 Queries | GZIP : Off

Торрент трекер RUTOR.IN, Не можете зайти на rutor.org? Какой новый адрес рутор? Какое зеркало рутор? Не работает rutor.org и зеркала? Тогда наш торрент специально для вас. Rutor.in неофициальное зеркало rutor. В случае если у Вас заблокирован rutor или вдруг Вы не можете на него зайти, то Вы без труда сможете скачать бесплатно и без рекламы последние новинки кино, игр, сериалов и прочего у нас, на Rutor.in. Не нужно использовать прокси, чтобы зайти на рутор, достаточно воспользоваться нашим ресурсом. Все новые фильмы, игры, сериалы, книги и музыка за 2013 и 2014 годы через торрент бесплатно. Скачивайте фильмы в хорошем качестве, игры для пк, xbox, playstation без регистрации. У нас вы найдете новые Зарубежные сериалы и Русские сериалы 2013, 2014, 2015 годов. Оставайтесь с нами, качайте любимые фильмы, игры, сериалы, книги и музыку.