img image001 image001 image001 image001 image001 image001 image001 image001 image001 image001 image001 image001 image001 image001 image001

Planets Sun Sun Sun
Статистика раздачи
Автор: Nickolas3434 | Размер: 746 МБ | Добавлен: 02 июн 2016
Раздают: 6    Качают: 5
Скачать торрент
Скачать торрент
Описание торрента

СообщениеДобавлено: 02 июн 2016 

Страна: СССР
Производство: Грузия-фильм
Жанр: драма
Год выпуска: 1955
Продолжительность: 00:48:36
Перевод: Профессиональный (многоголосый закадровый)
Cубтитры: нет
Оригинальная аудиодорожка: грузинский
Режиссер: Тенгиз Абуладзе, Резо Чхеидзе
В ролях:
Дудухана Церодзе, Лиана Моисцрапишвили, Нани Чиквинидзе, Роланд (Михо) Борашвили, Акакий (Како) Кванталиани, Карло Саканделидзе, Акакий Васадзе, Александр Омиадзе, Александр Такайшвили, Давид (Додо) Абашидзе, Шалва Гедеванишвили, Нино Чхеидзе, Александр Алазниспирели, Екатерина (Цаца) Амиреджиби, Мариам Гарикули, Владимир Гвишиани, Мераб Гегечкори, Степан Грикуров, Бухути Закариадзе, Мери Канделаки, Василий Кахниашвили, Нуну Мачавариани, Шота Нозадзе, Мавр Пясецкий...
Полный список актёров
Описание:
«Лурджа Магданы» — экранизация популярного в Грузии рассказа писательницы Экатерине Габашвили.
Действие рассказа и фильма происходит на рубеже веков 19 и 20, в деревне неподалеку от Тифлиса, куда вдова Магдана каждое утро относит глиняные банки со свежим мацони, чтобы прокормить троих детей — двенадцатилетнюю Софо, шестилетнего Михо и трехлетнюю Като. Однажды дети нашли на дороге близ деревни издыхающего осла, которого хозяин, богатый торговец углем Митуа, бросил помирать, считая, что его уже не поднять, отпоили, выходили, дали кличку «Лурджа» («синеглазый»), как только ослик, придя в себя, открыл свои большие ласковые глаза. Ослик обнаружил благородный и добрый нрав, сделался настоящим помощником и кормильцем этой бедной семьи. Магдана уже не сама носила тяжелую ношу в город, а нагружала банками со свежим мацони Лурджу и налегке рядом с ним отправлялась в путь. Ослик стал реальным источником счастья, надежды, радости для нее и ее детей. Однако эта счастливая, безмятежная, почти идиллическая жизнь длилась недолго. Несчастье разразилось внезапно: на базаре нагруженные углем ослы купца Митуа помчались навстречу Лурдже, сбили с ног. Разбились банки с мацони... Митуа увидел Лурджу, узнал в нем осла, брошенного им на дороге, проверил клеймо, удостоверился в том, что Лурджа и есть брошенным им на сельской дороге издыхающий ослик, и немедленно предъявил на него свои права. Вдова пыталась воспротивиться этому жестокому насилию: ведь ее дети в самом деле спасли скотине жизнь. Но Митуа подал в суд, подкупил судью и вернул себе осла. А Магдане и ее детям стало еще тяжелее и печальнее, чем до появления Лурджи, потому что они навсегда потеряли своего неожиданно обретенного длинноухого друга.





Источник: DVD9 R5
Качество видео: DVDRip
Формат видео: AVI
Видео: 656x496 (4:3), 25 fps, XviD ~ 1236 kbps avg, 0.152 bit/pixel
Аудио: 48 kHz, Dolby Digital AC3 5.1, 448 kbps русский
Аудио: 48 kHz, Dolby Digital AC3 5.1, 448 kbps грузинский
Раздача от:
Общее
Полное имя : Lurdzha.Magdany.1955.DVDRip_[New-team]_by_AVP_Studio.avi
Формат : AVI
Формат/Информация : Audio Video Interleave
Размер файла : 746 Мбайт
Продолжительность : 48 м.
Общий поток : 2146 Кбит/сек
Программа кодирования : VirtualDubModRus 1.5.10.2 (build 2542/release)
Библиотека кодирования : VirtualDubMod build 2542/release
Видео
Идентификатор : 0
Формат : MPEG-4 Visual
Профиль формата : Advanced Simple@L5
Параметр BVOP формата : 1
Параметр QPel формата : Нет
Параметр GMC формата : Без точки перехода
Параметр матрицы формата : Выборочная
Идентификатор кодека : XVID
Идентификатор кодека/Подсказка : XviD
Продолжительность : 48 м.
Битрейт : 1236 Кбит/сек
Ширина : 656 пикселей
Высота : 496 пикселей
Соотношение сторон : 4:3
Частота кадров : 25,000 кадров/сек
Цветовое пространство : YUV
Субдискретизация насыщенности : 4:2:0
Битовая глубина : 8 бит
Тип развёртки : Прогрессивная
Метод сжатия : С потерями
Бит/(Пиксели*Кадры) : 0.152
Размер потока : 430 Мбайт (58%)
Библиотека кодирования : XviD 1.2.1 (UTC 2008-12-04)
Аудио #1
Идентификатор : 1
Формат : AC-3
Формат/Информация : Audio Coding 3
Расширение режима : CM (complete main)
Параметр Endianness формата : Big
Идентификатор кодека : 2000
Продолжительность : 48 м.
Вид битрейта : Постоянный
Битрейт : 448 Кбит/сек
Каналы : 6 каналов
Расположение каналов : Front: L C R, Side: L R, LFE
Частота : 48,0 КГц
Частота кадров : 31,250 кадров/сек (1536 spf)
Метод сжатия : С потерями
Размер потока : 156 Мбайт (21%)
Выравнивание : Разделение по промежуткам
Продолжительность промежутка : 40 мс. (1,00 видеокадр)
Время предзагрузки промежутка : 500 мс.
Аудио #2
Идентификатор : 2
Формат : AC-3
Формат/Информация : Audio Coding 3
Расширение режима : CM (complete main)
Параметр Endianness формата : Big
Идентификатор кодека : 2000
Продолжительность : 48 м.
Вид битрейта : Постоянный
Битрейт : 448 Кбит/сек
Каналы : 6 каналов
Расположение каналов : Front: L C R, Side: L R, LFE
Частота : 48,0 КГц
Частота кадров : 31,250 кадров/сек (1536 spf)
Метод сжатия : С потерями
Размер потока : 156 Мбайт (21%)
Выравнивание : Разделение по промежуткам
Продолжительность промежутка : 40 мс. (1,00 видеокадр)
Время предзагрузки промежутка : 500 мс





   Похожие торренты   Торрент   Размер 
В этой теме нет новых непрочитанных сообщений. Лурджа Магданы (1955) DVDRip-AVC от New-Team

6 | 3

744.43 МБ

В этой теме нет новых непрочитанных сообщений. Лурджа Магданы (1955) DVDRip

0 | 16

1.19 ГБ

В этой теме нет новых непрочитанных сообщений. Два капитана (1955) DVDRip от New-Team

19 | 7

745.05 МБ

В этой теме нет новых непрочитанных сообщений. Два капитана (1955) DVDRip от New-Team

31 | 5

1.46 ГБ

В этой теме нет новых непрочитанных сообщений. Мексиканец (1955) DVDRip от New-Team

25 | 4

1.09 ГБ

В этой теме нет новых непрочитанных сообщений. Два капитана (1955) DVDRip-AVC от New-Team

80 | 5

1.46 ГБ

В этой теме нет новых непрочитанных сообщений. Мексиканец (1955) DVDRip-AVC от New-Team

22 | 3

1.09 ГБ




Вы не можете начинать темы
Вы не можете отвечать на сообщения
Вы не можете редактировать свои сообщения
Вы не можете удалять свои сообщения
Вы не можете добавлять вложения

Перейти:  
Для Мосгорсуда, Роскомнадзора и рекламодателей: mosgorsud-torrent[собачка]yandex.ru
 Вход
ppkBB3cker v.2 © 2008-2014 @ PPK
[ Time : 0.050s | 17 Queries | GZIP : Off ]
CGP output time : 0.020s | 5 Queries | GZIP : Off

Торрент трекер RUTOR.IN, Не можете зайти на rutor.org? Какой новый адрес рутор? Какое зеркало рутор? Не работает rutor.org и зеркала? Тогда наш торрент специально для вас. Rutor.in неофициальное зеркало rutor. В случае если у Вас заблокирован rutor или вдруг Вы не можете на него зайти, то Вы без труда сможете скачать бесплатно и без рекламы последние новинки кино, игр, сериалов и прочего у нас, на Rutor.in. Не нужно использовать прокси, чтобы зайти на рутор, достаточно воспользоваться нашим ресурсом. Все новые фильмы, игры, сериалы, книги и музыка за 2013 и 2014 годы через торрент бесплатно. Скачивайте фильмы в хорошем качестве, игры для пк, xbox, playstation без регистрации. У нас вы найдете новые Зарубежные сериалы и Русские сериалы 2013, 2014, 2015 годов. Оставайтесь с нами, качайте любимые фильмы, игры, сериалы, книги и музыку.