img image001 image001 image001 image001 image001 image001 image001 image001 image001 image001 image001 image001 image001 image001 image001

Planets Sun Sun Sun
Статистика раздачи
Автор: Nickolas3434 | Размер: 744.43 МБ | Добавлен: 02 июн 2016
Раздают: 6    Качают: 3
Скачать торрент
Скачать торрент
Описание торрента

СообщениеДобавлено: 02 июн 2016 

Страна: СССР
Производство: Грузия-фильм
Жанр: драма
Год выпуска: 1955
Продолжительность: 00:48:36
Перевод: Профессиональный (многоголосый закадровый)
Cубтитры: нет
Оригинальная аудиодорожка: грузинский
Режиссер: Тенгиз Абуладзе, Резо Чхеидзе
В ролях:
Дудухана Церодзе, Лиана Моисцрапишвили, Нани Чиквинидзе, Роланд (Михо) Борашвили, Акакий (Како) Кванталиани, Карло Саканделидзе, Акакий Васадзе, Александр Омиадзе, Александр Такайшвили, Давид (Додо) Абашидзе, Шалва Гедеванишвили, Нино Чхеидзе, Александр Алазниспирели, Екатерина (Цаца) Амиреджиби, Мариам Гарикули, Владимир Гвишиани, Мераб Гегечкори, Степан Грикуров, Бухути Закариадзе, Мери Канделаки, Василий Кахниашвили, Нуну Мачавариани, Шота Нозадзе, Мавр Пясецкий...
Полный список актёров
Описание:
«Лурджа Магданы» — экранизация популярного в Грузии рассказа писательницы Экатерине Габашвили.
Действие рассказа и фильма происходит на рубеже веков 19 и 20, в деревне неподалеку от Тифлиса, куда вдова Магдана каждое утро относит глиняные банки со свежим мацони, чтобы прокормить троих детей — двенадцатилетнюю Софо, шестилетнего Михо и трехлетнюю Като. Однажды дети нашли на дороге близ деревни издыхающего осла, которого хозяин, богатый торговец углем Митуа, бросил помирать, считая, что его уже не поднять, отпоили, выходили, дали кличку «Лурджа» («синеглазый»), как только ослик, придя в себя, открыл свои большие ласковые глаза. Ослик обнаружил благородный и добрый нрав, сделался настоящим помощником и кормильцем этой бедной семьи. Магдана уже не сама носила тяжелую ношу в город, а нагружала банками со свежим мацони Лурджу и налегке рядом с ним отправлялась в путь. Ослик стал реальным источником счастья, надежды, радости для нее и ее детей. Однако эта счастливая, безмятежная, почти идиллическая жизнь длилась недолго. Несчастье разразилось внезапно: на базаре нагруженные углем ослы купца Митуа помчались навстречу Лурдже, сбили с ног. Разбились банки с мацони... Митуа увидел Лурджу, узнал в нем осла, брошенного им на дороге, проверил клеймо, удостоверился в том, что Лурджа и есть брошенным им на сельской дороге издыхающий ослик, и немедленно предъявил на него свои права. Вдова пыталась воспротивиться этому жестокому насилию: ведь ее дети в самом деле спасли скотине жизнь. Но Митуа подал в суд, подкупил судью и вернул себе осла. А Магдане и ее детям стало еще тяжелее и печальнее, чем до появления Лурджи, потому что они навсегда потеряли своего неожиданно обретенного длинноухого друга.





Источник: DVD9 R5
Качество видео: DVDRip-AVC
Формат видео: MKV
Видео: 664->742x556 (4:3), 25 fps, H264 ~ 1244 kbps avg, 0.135 bit/pixel
Аудио: 48 kHz, Dolby Digital AC3 5.1, 448 kbps русский
Аудио: 48 kHz, Dolby Digital AC3 5.1, 448 kbps грузинский
Раздача от:
Общее
Полное имя : Lurdzha.Magdany.1955.DVDRip-AVC_[New-team]_by_AVP_Studio.mkv
Формат : Matroska
Версия формата : Version 4 / Version 2
Размер файла : 744 Мбайт
Продолжительность : 48 м.
Общий поток : 2142 Кбит/сек
Дата кодирования : UTC 2016-06-01 08:29:46
Программа кодирования : mkvmerge v9.0.1 ('Obstacles') 64bit
Библиотека кодирования : libebml v1.3.3 + libmatroska v1.4.4
Видео
Идентификатор : 1
Формат : AVC
Формат/Информация : Advanced Video Codec
Профиль формата : High@L4.1
Параметр CABAC формата : Да
Параметр ReFrames формата : 10 кадров
Идентификатор кодека : V_MPEG4/ISO/AVC
Продолжительность : 48 м.
Битрейт : 1244 Кбит/сек
Ширина : 664 пикселя
Высота : 556 пикселей
Соотношение сторон : 4:3
Режим частоты кадров : Постоянный
Частота кадров : 25,000 кадров/сек
Цветовое пространство : YUV
Субдискретизация насыщенности : 4:2:0
Битовая глубина : 8 бит
Тип развёртки : Прогрессивная
Бит/(Пиксели*Кадры) : 0.135
Размер потока : 432 Мбайт (58%)
Библиотека кодирования : x264 core 148 r2597 e86f3a1
Настройки программы : cabac=1 / ref=10 / deblock=1:-2:-1 / analyse=0x3:0x113 / me=umh / subme=10 / psy=1 / psy_rd=1.00:0.00 / mixed_ref=1 / me_range=32 / chroma_me=1 / trellis=2 / 8x8dct=1 / cqm=0 / deadzone=21,11 / fast_pskip=1 / chroma_qp_offset=-2 / threads=6 / lookahead_threads=1 / sliced_threads=0 / nr=0 / decimate=0 / interlaced=0 / bluray_compat=0 / constrained_intra=0 / bframes=8 / b_pyramid=2 / b_adapt=2 / b_bias=0 / direct=3 / weightb=1 / open_gop=0 / weightp=2 / keyint=250 / keyint_min=25 / scenecut=40 / intra_refresh=0 / rc=2pass / mbtree=0 / bitrate=1244 / ratetol=1.0 / qcomp=0.60 / qpmin=0 / qpmax=69 / qpstep=4 / cplxblur=20.0 / qblur=0.5 / ip_ratio=1.40 / pb_ratio=1.30 / aq=1:1.00
Default : Да
Forced : Нет
Аудио #1
Идентификатор : 2
Формат : AC-3
Формат/Информация : Audio Coding 3
Расширение режима : CM (complete main)
Параметр Endianness формата : Big
Идентификатор кодека : A_AC3
Продолжительность : 48 м.
Вид битрейта : Постоянный
Битрейт : 448 Кбит/сек
Каналы : 6 каналов
Расположение каналов : Front: L C R, Side: L R, LFE
Частота : 48,0 КГц
Частота кадров : 31,250 кадров/сек (1536 spf)
Метод сжатия : С потерями
Размер потока : 156 Мбайт (21%)
Язык : Russian
Default : Да
Forced : Нет
Аудио #2
Идентификатор : 3
Формат : AC-3
Формат/Информация : Audio Coding 3
Расширение режима : CM (complete main)
Параметр Endianness формата : Big
Идентификатор кодека : A_AC3
Продолжительность : 48 м.
Вид битрейта : Постоянный
Битрейт : 448 Кбит/сек
Каналы : 6 каналов
Расположение каналов : Front: L C R, Side: L R, LFE
Частота : 48,0 КГц
Частота кадров : 31,250 кадров/сек (1536 spf)
Метод сжатия : С потерями
Размер потока : 156 Мбайт (21%)
Язык : Georgian
Default : Нет
Forced : Нет





   Похожие торренты   Торрент   Размер 
В этой теме нет новых непрочитанных сообщений. Лурджа Магданы (1955) DVDRip от New-Team

6 | 4

746 МБ

В этой теме нет новых непрочитанных сообщений. Лурджа Магданы (1955) DVDRip

0 | 16

1.19 ГБ

В этой теме нет новых непрочитанных сообщений. Мать (1955) DVDRip от New-Team

28 | 6

1.09 ГБ

В этой теме нет новых непрочитанных сообщений. Попрыгунья (1955) DVDRip-AVC от New-Team

22 | 3

1.09 ГБ

В этой теме нет новых непрочитанных сообщений. Попрыгунья (1955) DVDRip от New-Team

4 | 6

745.59 МБ

В этой теме нет новых непрочитанных сообщений. Попрыгунья (1955) DVDRip от New-Team

4 | 14

1.09 ГБ

В этой теме нет новых непрочитанных сообщений. Мексиканец (1955) DVDRip от New-Team

26 | 5

1.09 ГБ




Вы не можете начинать темы
Вы не можете отвечать на сообщения
Вы не можете редактировать свои сообщения
Вы не можете удалять свои сообщения
Вы не можете добавлять вложения

Перейти:  
Для Мосгорсуда, Роскомнадзора и рекламодателей: mosgorsud-torrent[собачка]yandex.ru
 Вход
ppkBB3cker v.2 © 2008-2014 @ PPK
[ Time : 0.018s | 15 Queries | GZIP : On ]

Торрент трекер RUTOR.IN, Не можете зайти на rutor.org? Какой новый адрес рутор? Какое зеркало рутор? Не работает rutor.org и зеркала? Тогда наш торрент специально для вас. Rutor.in неофициальное зеркало rutor. В случае если у Вас заблокирован rutor или вдруг Вы не можете на него зайти, то Вы без труда сможете скачать бесплатно и без рекламы последние новинки кино, игр, сериалов и прочего у нас, на Rutor.in. Не нужно использовать прокси, чтобы зайти на рутор, достаточно воспользоваться нашим ресурсом. Все новые фильмы, игры, сериалы, книги и музыка за 2013 и 2014 годы через торрент бесплатно. Скачивайте фильмы в хорошем качестве, игры для пк, xbox, playstation без регистрации. У нас вы найдете новые Зарубежные сериалы и Русские сериалы 2013, 2014, 2015 годов. Оставайтесь с нами, качайте любимые фильмы, игры, сериалы, книги и музыку.