img image001 image001 image001 image001 image001 image001 image001 image001 image001 image001 image001 image001 image001 image001 image001

Planets Sun Sun Sun
Статистика раздачи
Автор: Nickolas3434 | Размер: 2.86 ГБ | Добавлен: 04 июн 2016
Раздают: 127    Качают: 9
Скачать торрент
Скачать торрент
Описание торрента

СообщениеДобавлено: 04 июн 2016 


Информация о фильме
Название: Неудача Пуаро
Год выхода: 2002
Жанр: Детектив, комедия, криминал
Режиссер: Сергей Урсуляк
В ролях: Константин Райкин, Сергей Маковецкий, Светлана Немоляева, Александр Лазарев мл., Елена Козелькова, Сергей Степанченко, Ольга Барнет, Роман Романцов, Ольга Красько, Юрий Чурсин
О фильме:
Экранизация самого популярного романа Агаты Кристи "Убийство Роджера Экройда". Три загадочных убийства. В собственном кабинете убит хозяин особняка Роджер Экройд. Расследование ведут двое - местный инспектор и бельгийский сыщик Эркюль Пуаро (Константин Райкин). Подозреваются все: племянник, домочадцы, слуги, гости. У каждого есть алиби и каждый что-то утаивает, но в то же время надеется на Пуаро и справедливый исход следствия. Все, кроме истинного убийцы. Но Пуаро не спешит, он терпеливо накапливает факты, избавляется от противоречий, освобождает каждого от обременительной тайны и остается один на один с убийцей, фактами, логикой и непростым человеческим чувством - разочарованием...
Страна: Россия, Интернешнл Медиа Проджектс
Продолжительность: 5 x ~ 00:52:17
Перевод: не требуется
Файл
Кодек: x264
Качество: DVDRip-AVC
Видео: MPEG-4 AVC, 1300 Кбит/с, 700x430@746x430
Звук: AC3, 2 ch, 192 Кбит/с

raw [info]: 700x430p 16:15 @ 25/1 fps (cfr)
x264 [info]: using SAR=16/15
x264 [info]: using cpu capabilities: MMX2 SSE2Fast SSSE3 SSE4.2 AVX
x264 [info]: profile High, level 4.1
x264 [info]: frame I:547 Avg QP:15.85 size: 51198
x264 [info]: frame P:18016 Avg QP:19.91 size: 15666
x264 [info]: frame B:54849 Avg QP:21.16 size: 3037
====================================================
Общее
Уникальный идентификатор : 213302181532025615694116880457336714941 (0xA078818024BE0E4E9F7C760BD13576BD)
Полное имя : R:МОИ РИПЫНеудача Пуаро_2002-DVDRip-AVCПуаро-1.mkv
Формат : Matroska
Версия формата : Version 2
Размер файла : 523 Мбайт
Продолжительность : 48 м.
Общий поток : 1493 Кбит/сек
Дата кодирования : UTC 2016-05-30 10:23:22
Программа кодирования : mkvmerge v5.8.0 ('No Sleep / Pillow') built on Sep 2 2012 15:37:04
Библиотека кодирования : libebml v1.2.3 + libmatroska v1.3.0
Видео
Идентификатор : 1
Формат : AVC
Формат/Информация : Advanced Video Codec
Профиль формата : High@L4.1
Параметр CABAC формата : Да
Параметр ReFrames формата : 14 кадров
Идентификатор кодека : V_MPEG4/ISO/AVC
Продолжительность : 48 м.
Битрейт : 1300 Кбит/сек
Ширина : 700 пикселей
Высота : 430 пикселей
Соотношение сторон : 1,735
Соотношение сторон в оригинале : 1,736
Режим частоты кадров : Постоянный
Частота кадров : 25,000 кадров/сек
Цветовое пространство : YUV
Субдискретизация насыщенности : 4:2:0
Битовая глубина : 8 бит
Тип развёртки : Прогрессивная
Бит/(Пиксели*Кадры) : 0.173
Размер потока : 445 Мбайт (85%)
Библиотека кодирования : x264 core 148 r2638 7599210
Настройки программы : cabac=1 / ref=14 / deblock=1:-2:-2 / analyse=0x3:0x133 / me=umh / subme=10 / psy=1 / psy_rd=1.05:0.10 / mixed_ref=1 / me_range=32 / chroma_me=1 / trellis=2 / 8x8dct=1 / cqm=0 / deadzone=21,11 / fast_pskip=0 / chroma_qp_offset=-3 / threads=12 / lookahead_threads=2 / sliced_threads=0 / nr=0 / decimate=0 / interlaced=0 / bluray_compat=0 / constrained_intra=0 / bframes=9 / b_pyramid=2 / b_adapt=2 / b_bias=0 / direct=3 / weightb=1 / open_gop=0 / weightp=2 / keyint=250 / keyint_min=25 / scenecut=40 / intra_refresh=0 / rc=2pass / mbtree=0 / bitrate=1300 / ratetol=1.0 / qcomp=0.63 / qpmin=0 / qpmax=39 / qpstep=4 / cplxblur=20.0 / qblur=0.5 / ip_ratio=1.40 / pb_ratio=1.30 / aq=1:0.90
Язык : English
Default : Да
Forced : Нет
Цветовой диапазон : Limited
Основные цвета : BT.601 PAL
Характеристики трансфера : BT.470 System B, BT.470 System G
Коэффициенты матрицы : BT.601
Аудио
Идентификатор : 2
Формат : AC-3
Формат/Информация : Audio Coding 3
Расширение режима : CM (complete main)
Параметр Endianness формата : Big
Идентификатор кодека : A_AC3
Продолжительность : 48 м.
Вид битрейта : Постоянный
Битрейт : 192 Кбит/сек
Каналы : 2 канала
Расположение каналов : Front: L R
Частота : 48,0 КГц
Метод сжатия : С потерями
Размер потока : 67,2 Мбайт (13%)
Язык : Russian
Default : Да
Forced : Нет

Релиз от:
Автор релиза:



   Похожие торренты   Торрент   Размер 
В этой теме нет новых непрочитанных сообщений. Неудача Пуаро (2002) DVDRip

416 | 12

2.45 ГБ

В этой теме нет новых непрочитанных сообщений. Пуаро Агаты Кристи / Пуаро за кадром / Behind The Scenes: Poirot (2005) DVDRip

8 | 6

838.9 МБ

В этой теме нет новых непрочитанных сообщений. Большая неудача / Fuck Up (2012) HDRip | L1

32 | 2

1.46 ГБ

В этой теме нет новых непрочитанных сообщений. Большая неудача / Fuck Up (2012) HDRip | L1

2 | 1

689.95 МБ

В этой теме нет новых непрочитанных сообщений. Большая неудача / Fuck Up (2012) BDRip 720p | L1

4 | 2

4.89 ГБ

В этой теме нет новых непрочитанных сообщений. Война (2002) DVDRip-AVC от ExKinoRay

318 | 31

2.54 ГБ

В этой теме нет новых непрочитанных сообщений. Спецотдел [01-10 из 10] (2002) DVDRip от ExKinoRay

15 | 3

4.64 ГБ




Вы не можете начинать темы
Вы не можете отвечать на сообщения
Вы не можете редактировать свои сообщения
Вы не можете удалять свои сообщения
Вы не можете добавлять вложения

Перейти:  
Для Мосгорсуда, Роскомнадзора и рекламодателей: mosgorsud-torrent[собачка]yandex.ru
 Вход
ppkBB3cker v.2 © 2008-2014 @ PPK
[ Time : 0.022s | 16 Queries | GZIP : Off ]

Торрент трекер RUTOR.IN, Не можете зайти на rutor.org? Какой новый адрес рутор? Какое зеркало рутор? Не работает rutor.org и зеркала? Тогда наш торрент специально для вас. Rutor.in неофициальное зеркало rutor. В случае если у Вас заблокирован rutor или вдруг Вы не можете на него зайти, то Вы без труда сможете скачать бесплатно и без рекламы последние новинки кино, игр, сериалов и прочего у нас, на Rutor.in. Не нужно использовать прокси, чтобы зайти на рутор, достаточно воспользоваться нашим ресурсом. Все новые фильмы, игры, сериалы, книги и музыка за 2013 и 2014 годы через торрент бесплатно. Скачивайте фильмы в хорошем качестве, игры для пк, xbox, playstation без регистрации. У нас вы найдете новые Зарубежные сериалы и Русские сериалы 2013, 2014, 2015 годов. Оставайтесь с нами, качайте любимые фильмы, игры, сериалы, книги и музыку.