img image001 image001 image001 image001 image001 image001 image001 image001 image001 image001 image001 image001 image001 image001 image001

Planets Sun Sun Sun
Статистика раздачи
Автор: Nickolas3434 | Размер: 1.18 ГБ | Добавлен: 04 июн 2016
Раздают: 47    Качают: 2
Скачать торрент
Скачать торрент
Описание торрента

СообщениеДобавлено: 04 июн 2016 


Информация о фильме
Название: ...и другие официальные лица
Год выхода: 1976
Жанр: Мелодрама
Режиссер: Семён Аранович
В ролях: Вячеслав Тихонов, Ирина Мирошниченко, Анатолий Грачёв, Всеволод Санаев, Эрнст Романов, Гунар Килгас, Всеволод Якут, Лев Дуров, Евгения Ханаева, Николай Волков ст., Александр Галибин, Лев Круглый, Витаутас Паукште, Ольга Анохина, Виктор Камаев, Алексей Бахарь, Глеб Плаксин, Галина Чигинская, Мария Авербах, Ирина Каморная, Ирина Сабянина
О фильме:
Представитель ведомства внешней торговли ведет переговоры с бизнесменами о заключении торговой сделки. Хроника переговоров переплетается в картине с линией личных взаимоотношений героя. Торговое соглашение между западной нефтяной компанией и советскими промышленниками под угрозой срыва. Глава иностранной делегации неожиданно требует замены нашего представителя на переговорах. Он не забыл, чем закончилась их последняя встреча...
Страна: СССР, Ленфильм
Продолжительность: 01:24:35
Перевод: не требуется
Файл
Кодек: x264
Качество: SATRip-AVC
Видео: MPEG-4 AVC, 1800 Кбит/с, 696x368@760x368
Звук: AC3, 2 ch, 192 Кбит/с

raw [info]: 696x368p 12:11 @ 25/1 fps (cfr)
x264 [info]: using SAR=12/11
x264 [info]: using cpu capabilities: MMX2 SSE2Fast SSSE3 SSE4.2 AVX
x264 [info]: profile High, level 4.1
x264 [info]: frame I:46 Avg QP:16.11 size: 47438
x264 [info]: frame P:582 Avg QP:19.22 size: 18894
x264 [info]: frame B:1881 Avg QP:20.96 size: 5050
======================================================
Общее
Уникальный идентификатор : 234601398252922827088196375842722165388 (0xB07E95F64549802DAD6123D54F2C328C)
Полное имя : D:И другие официальные лица_1976-SATRip-AVC.mkv
Формат : Matroska
Версия формата : Version 2
Размер файла : 1,18 Гбайт
Продолжительность : 1 ч. 24 м.
Общий поток : 1994 Кбит/сек
Дата кодирования : UTC 2016-05-27 18:51:10
Программа кодирования : mkvmerge v5.8.0 ('No Sleep / Pillow') built on Sep 2 2012 15:37:04
Библиотека кодирования : libebml v1.2.3 + libmatroska v1.3.0
Видео
Идентификатор : 1
Формат : AVC
Формат/Информация : Advanced Video Codec
Профиль формата : High@L4.1
Параметр CABAC формата : Да
Параметр ReFrames формата : 13 кадров
Идентификатор кодека : V_MPEG4/ISO/AVC
Продолжительность : 1 ч. 24 м.
Битрейт : 1800 Кбит/сек
Ширина : 696 пикселей
Высота : 368 пикселей
Соотношение сторон : 2,065
Соотношение сторон в оригинале : 2,063
Режим частоты кадров : Постоянный
Частота кадров : 25,000 кадров/сек
Цветовое пространство : YUV
Субдискретизация насыщенности : 4:2:0
Битовая глубина : 8 бит
Тип развёртки : Прогрессивная
Бит/(Пиксели*Кадры) : 0.281
Размер потока : 1,04 Гбайт (88%)
Библиотека кодирования : x264 core 148 r2638 7599210
Настройки программы : cabac=1 / ref=13 / deblock=1:-2:-2 / analyse=0x3:0x133 / me=umh / subme=10 / psy=1 / psy_rd=1.05:0.13 / mixed_ref=1 / me_range=32 / chroma_me=1 / trellis=2 / 8x8dct=1 / cqm=0 / deadzone=21,11 / fast_pskip=0 / chroma_qp_offset=-3 / threads=11 / lookahead_threads=1 / sliced_threads=0 / nr=0 / decimate=0 / interlaced=0 / bluray_compat=0 / constrained_intra=0 / bframes=9 / b_pyramid=2 / b_adapt=2 / b_bias=0 / direct=3 / weightb=1 / open_gop=0 / weightp=2 / keyint=250 / keyint_min=25 / scenecut=40 / intra_refresh=0 / rc=2pass / mbtree=0 / bitrate=1800 / ratetol=1.0 / qcomp=0.63 / qpmin=0 / qpmax=39 / qpstep=4 / cplxblur=20.0 / qblur=0.5 / ip_ratio=1.40 / pb_ratio=1.30 / aq=1:1.00
Язык : English
Default : Да
Forced : Нет
Цветовой диапазон : Limited
Основные цвета : BT.601 PAL
Характеристики трансфера : BT.470 System B, BT.470 System G
Коэффициенты матрицы : BT.601
Аудио
Идентификатор : 2
Формат : AC-3
Формат/Информация : Audio Coding 3
Расширение режима : CM (complete main)
Параметр Endianness формата : Big
Идентификатор кодека : A_AC3
Продолжительность : 1 ч. 24 м.
Вид битрейта : Постоянный
Битрейт : 192 Кбит/сек
Каналы : 2 канала
Расположение каналов : Front: L R
Частота : 48,0 КГц
Метод сжатия : С потерями
Задержка видео : 13 мс.
Размер потока : 116 Мбайт (10%)
Язык : Russian
Default : Да
Forced : Нет

Релиз от:
Автор релиза:



   Похожие торренты   Торрент   Размер 
В этой теме нет новых непрочитанных сообщений. ... и другие официальные лица (1976) TVRip

45 | 14

1.09 ГБ

В этой теме нет новых непрочитанных сообщений. Настоящий тбилисец и другие / Gaseirneba Tbilisshi (1976) DVDRip

24 | 6

971.85 МБ

В этой теме нет новых непрочитанных сообщений. Безотцовщина (1976) SATRip-AVC от ExKinoRay

68 | 10

1.34 ГБ

В этой теме нет новых непрочитанных сообщений. Белый Бим Чёрное ухо (1976) SATRip-AVC от ExKinoRay

261 | 15

3.31 ГБ

В этой теме нет новых непрочитанных сообщений. Тимур и его команда (1976) SATRip-AVC от ExKinoRay

321 | 12

2.27 ГБ

В этой теме нет новых непрочитанных сообщений. Меня это не касается (1976) SATRip-AVC от ExKinoRay

301 | 41

1.53 ГБ

В этой теме нет новых непрочитанных сообщений. Смерть под парусом (1976) SATRip-AVC от ExKinoRay

23 | 2

2.44 ГБ




Вы не можете начинать темы
Вы не можете отвечать на сообщения
Вы не можете редактировать свои сообщения
Вы не можете удалять свои сообщения
Вы не можете добавлять вложения

Перейти:  
Для Мосгорсуда, Роскомнадзора и рекламодателей: mosgorsud-torrent[собачка]yandex.ru
 Вход
ppkBB3cker v.2 © 2008-2014 @ PPK
[ Time : 0.062s | 16 Queries | GZIP : Off ]

Торрент трекер RUTOR.IN, Не можете зайти на rutor.org? Какой новый адрес рутор? Какое зеркало рутор? Не работает rutor.org и зеркала? Тогда наш торрент специально для вас. Rutor.in неофициальное зеркало rutor. В случае если у Вас заблокирован rutor или вдруг Вы не можете на него зайти, то Вы без труда сможете скачать бесплатно и без рекламы последние новинки кино, игр, сериалов и прочего у нас, на Rutor.in. Не нужно использовать прокси, чтобы зайти на рутор, достаточно воспользоваться нашим ресурсом. Все новые фильмы, игры, сериалы, книги и музыка за 2013 и 2014 годы через торрент бесплатно. Скачивайте фильмы в хорошем качестве, игры для пк, xbox, playstation без регистрации. У нас вы найдете новые Зарубежные сериалы и Русские сериалы 2013, 2014, 2015 годов. Оставайтесь с нами, качайте любимые фильмы, игры, сериалы, книги и музыку.
cron