img image001 image001 image001 image001 image001 image001 image001 image001 image001 image001 image001 image001 image001 image001 image001

Planets Sun Sun Sun
Статистика раздачи
Автор: Nickolas3434 | Размер: 1.75 ГБ | Добавлен: 07 июн 2016
Раздают: 34    Качают: 3
Скачать торрент
Скачать торрент
Описание торрента

СообщениеДобавлено: 07 июн 2016 


Информация о фильме
Название: Алхимики
Год выхода: 2000
Жанр: комедия
Режиссер: Дмитрий Астрахан
В ролях: Юрий Стоянов, Илья Олейников, Анна Легчилова, Семён Фурман, Виктор Сухоруков, Владимир Лелётко, Виктор Лебедев, Алексей Шевченков, Ольга Нефедова, Владимир Корпусь, Наталья Чемодурова, Дмитрий Астрахан, Николай Кириченко, Анжела Кораблева, Анастасия Дробыш, Нина Розанцева
О фильме:
Когда происходит эта история, сказать трудно, поскольку на планете Земля `распалась связь времен`, перемешались эпохи... Сэр Лавуит (Виктор Лебедев), типичный ученый-отшельник, покидает Столицу и уезжает к коллеге в другой город. В доме остается хозяйничать развеселая троица слуг: горничная Дол (Анна Легчилова), лакей Фейс (Илья Олейников) и дворецкий Сатл (Юрий Стоянов). Втроем они дружно строят планы, как использовать дом хозяина для обогащения. Внезапно Сатлу приходит в голову выдающаяся идея - заделаться `алхимиками` и разбогатеть, дурача доверчивых горожан, причем разбогатеть БЕЗУМНО-О-О-О!!!

Сценарист: Олег Данилов
Оператор: Андрей Чертов
Композитор: Алексей Григорьев
Художник: Игорь Щёлоков
Продюсеры: Владимир Храпунов, Александр Васильков, Ольга Шиманская (иcп.), Владимир Ястреба (иcп.)
Производство: Беларусьфильм, Киностудия "Мавр", Болгарский Национальный Киноцентр, Фирма "Вяст"
Благодарность: За оказанную помощь с недостающим материалом Bartimeyse.
За что ему большое спасибо!
Запись потока *.ts с наземного цифрового телеканала "Беларусь 3", ремукс в *.mkv программой VideoReDo.
В конце фильма присутствуют 2 анонса, видны на скринах.
Страна: Россия, Республика Беларусь, Болгария
Продолжительность: 01:40:29
Перевод: не требует
Файл
Кодек: AVC (H264)
Качество: DVB
Видео: AVC (H264), 720x576 (4:3), 25 fps, 2 187 Kbps
Звук: MP2, 256 kbps, 2 channels, 48 kHz
Семпл
Код:
General
Unique ID                      : 78393683706045950796792623388529751960 (0x3AFA1304ABDF64F12854909A37AB7798)
Complete name                  : D:Новая  земля 2Художественные фильмыАлхимики (2000)Алхимики (2000).mkv
Format                         : Matroska
Format version                 : Version 2
File size                      : 1.75 GiB
Duration                       : 1h 40mn
Overall bit rate               : 2 493 Kbps
Writing application            : Lavf52.64.2
Writing library                : Lavf52.64.2
Video
ID                             : 1
Format                         : AVC
Format/Info                    : Advanced Video Codec
Format profile                 : Main@L3.0
Format settings, CABAC         : Yes
Format settings, ReFrames      : 4 frames
Format settings, GOP           : M=4, N=24
Codec ID                       : V_MPEG4/ISO/AVC
Duration                       : 1h 40mn
Bit rate                       : 2 187 Kbps
Width                          : 720 pixels
Height                         : 576 pixels
Display aspect ratio           : 4:3
Original display aspect ratio  : 4:3
Frame rate mode                : Constant
Frame rate                     : 25.000 fps
Standard                       : PAL
Color space                    : YUV
Chroma subsampling             : 4:2:0
Bit depth                      : 8 bits
Scan type                      : MBAFF
Scan order                     : Top Field First
Bits/(Pixel*Frame)             : 0.211
Stream size                    : 1.54 GiB (88%)
Default                        : Yes
Forced                         : No
Color primaries                : BT.601 PAL
Transfer characteristics       : BT.470 System B, BT.470 System G
Matrix coefficients            : BT.601
Color range                    : Limited
Audio
ID                             : 2
Format                         : MPEG Audio
Format version                 : Version 1
Format profile                 : Layer 2
Codec ID                       : A_MPEG/L2
Codec ID/Hint                  : MP2
Duration                       : 1h 40mn
Bit rate mode                  : Constant
Bit rate                       : 256 Kbps
Channel(s)                     : 2 channels
Sampling rate                  : 48.0 KHz
Compression mode               : Lossy
Stream size                    : 184 MiB (10%)
Language                       : English
Default                        : Yes
Forced                         : No




   Похожие торренты   Торрент   Размер 
В этой теме нет новых непрочитанных сообщений. Алхимики (2000) TVRip

21 | 5

700.71 МБ

В этой теме нет новых непрочитанных сообщений. Алхимики (2000) SATRip от torrentfilm

58 | 1

1.49 ГБ

В этой теме нет новых непрочитанных сообщений. Алхимики (2000) SATRip от torrentfilm

12 | 7

748.43 МБ

В этой теме нет новых непрочитанных сообщений. Николай Скориков - сольный концерт. Славянский базар 2000 (2000) DVB от AND03AND

0 | 2

1.54 ГБ

В этой теме нет новых непрочитанных сообщений. Славянский базар 2000. Антология (2000) DVB от AND03AND

2 | 4

972.05 МБ

В этой теме нет новых непрочитанных сообщений. Алхимики. Темная Прага (2012) PC

0 | 2

330.65 МБ

В этой теме нет новых непрочитанных сообщений. Алхимики. Темная Прага / Alchemy Mysteries (2012) PC

60 | 3

357.41 МБ




Вы не можете начинать темы
Вы не можете отвечать на сообщения
Вы не можете редактировать свои сообщения
Вы не можете удалять свои сообщения
Вы не можете добавлять вложения

Перейти:  
Для Мосгорсуда, Роскомнадзора и рекламодателей: mosgorsud-torrent[собачка]yandex.ru
 Вход
ppkBB3cker v.2 © 2008-2014 @ PPK
[ Time : 0.089s | 14 Queries | GZIP : Off ]

Торрент трекер RUTOR.IN, Не можете зайти на rutor.org? Какой новый адрес рутор? Какое зеркало рутор? Не работает rutor.org и зеркала? Тогда наш торрент специально для вас. Rutor.in неофициальное зеркало rutor. В случае если у Вас заблокирован rutor или вдруг Вы не можете на него зайти, то Вы без труда сможете скачать бесплатно и без рекламы последние новинки кино, игр, сериалов и прочего у нас, на Rutor.in. Не нужно использовать прокси, чтобы зайти на рутор, достаточно воспользоваться нашим ресурсом. Все новые фильмы, игры, сериалы, книги и музыка за 2013 и 2014 годы через торрент бесплатно. Скачивайте фильмы в хорошем качестве, игры для пк, xbox, playstation без регистрации. У нас вы найдете новые Зарубежные сериалы и Русские сериалы 2013, 2014, 2015 годов. Оставайтесь с нами, качайте любимые фильмы, игры, сериалы, книги и музыку.