img image001 image001 image001 image001 image001 image001 image001 image001 image001 image001 image001 image001 image001 image001 image001

Planets Sun Sun Sun
Статистика раздачи
Автор: Nickolas3434 | Размер: 3.49 ГБ | Добавлен: 06 июн 2016
Раздают: 71    Качают: 2
Скачать торрент
Скачать торрент
Описание торрента

СообщениеДобавлено: 06 июн 2016 


Информация о фильме
Название: Тот самый Мюнхгаузен
Год выхода: 1979
Жанр: Фэнтези, Трагикомедия
Режиссер: Марк Захаров
В ролях: Олег Янковский, Инна Чурикова, Елена Коренева, Игорь Кваша, Александр Абдулов, Леонид Ярмольник, Юрий Катин-Ярцев, Владимир Долинский, Леонид Броневой, Семён Фарада, Всеволод Ларионов, Игорь Ясулович, Любовь Полищук, Григорий Горин, Лариса Кузнецова, Арсен Амаспюрянц, Арним Мюльштэдт, Нина Палладина, Олег Соколов, Клаус-Юрген Штайнман, Владимир Яновскис, Вадим Александров, Эберхард Винтцен, Григорий Маликов, Юрий Мартынов, Клаус Ниц, Анатолий Скорякин, Сергей Торкачевский, Владимир Фирсов, Евгений Марков, Владимир Ванышев, Леонид Недович, Георгий Всеволодов, Антон Макаров, Юрий Потёмкин, Александр Мыльников
О фильме:
Барон Мюнхгаузен хочет жениться на любимой им Марте, но церковь отказывается обвенчать их, так как имеется живая жена барона, "усмирявшая" его двадцать лет. Герцог разрешит брак только в том случае, если барон письменно подтвердит, что все его истории лживы, а он сам - обыкновенный человек. Уставшая Марта хочет, чтобы барон стал таким, как все, и тогда он решает "умереть", а вместо него будет жить скромный садовник Мюллер. После "смерти" барона выясняется, что живым он мешал всем, а мертвым всех устраивает. Ему ставят памятники и произносят панегирики. И вот тут барон решает вновь ожить...
Страна: СССР, Мосфильм
Продолжительность: 01:10:44 + 01:03:22
Перевод: не требуется
Файл
Кодек: x264
Качество: DVDRip-AVC
Видео: MPEG-4 AVC, 3050 Кбит/с, 716x572@764x572
Звук: AC3, 6 ch, 448 Кбит/с, AC3, 1 ch, 224 Кбит/с

raw [info]: 716x572p 16:15 @ 25/1 fps (cfr)
x264 [info]: using SAR=16/15
x264 [info]: using cpu capabilities: MMX2 SSE2Fast SSSE3 SSE4.2 AVX
x264 [info]: profile High, level 4.1
x264 [info]: frame I:540 Avg QP:16.70 size: 83654
x264 [info]: frame P:29624 Avg QP:20.00 size: 31973
x264 [info]: frame B:75946 Avg QP:22.21 size: 8589
=============================================================================================================
Общее
Уникальный идентификатор : 211167242176989357977266278788903696549 (0x9EDD54DD11779930B1CFDCC4169778A5)
Полное имя : I:МОИ РИПЫТот самый Мюнхгаузен_1979-DVDRip-AVCМюнхгаузен-1.mkv
Формат : Matroska
Версия формата : Version 2
Размер файла : 1,86 Гбайт
Продолжительность : 1 ч. 10 м.
Общий поток : 3774 Кбит/сек
Дата кодирования : UTC 2015-02-20 16:43:54
Программа кодирования : mkvmerge v5.8.0 ('No Sleep / Pillow') built on Sep 2 2012 15:37:04
Библиотека кодирования : libebml v1.2.3 + libmatroska v1.3.0
Видео
Идентификатор : 1
Формат : AVC
Формат/Информация : Advanced Video Codec
Профиль формата : High@L4.1
Параметр CABAC формата : Да
Параметр ReFrames формата : 13 кадров
Идентификатор кодека : V_MPEG4/ISO/AVC
Продолжительность : 1 ч. 10 м.
Битрейт : 3100 Кбит/сек
Ширина : 716 пикселей
Высота : 572 пикселя
Соотношение сторон : 4:3
Соотношение сторон в оригинале : 4:3
Режим частоты кадров : Постоянный
Частота кадров : 25,000 кадров/сек
Цветовое пространство : YUV
Субдискретизация насыщенности : 4:2:0
Битовая глубина : 8 бит
Тип развёртки : Прогрессивная
Бит/(Пиксели*Кадры) : 0.303
Размер потока : 1,50 Гбайт (80%)
Библиотека кодирования : x264 core 142 r2431 ac76440
Настройки программы : cabac=1 / ref=13 / deblock=1:-2:-2 / analyse=0x3:0x133 / me=umh / subme=10 / psy=1 / psy_rd=1.05:0.15 / mixed_ref=1 / me_range=32 / chroma_me=1 / trellis=2 / 8x8dct=1 / cqm=0 / deadzone=21,11 / fast_pskip=0 / chroma_qp_offset=-3 / threads=12 / lookahead_threads=2 / sliced_threads=0 / nr=0 / decimate=0 / interlaced=0 / bluray_compat=0 / constrained_intra=0 / bframes=7 / b_pyramid=2 / b_adapt=2 / b_bias=0 / direct=3 / weightb=1 / open_gop=0 / weightp=2 / keyint=250 / keyint_min=25 / scenecut=40 / intra_refresh=0 / rc=2pass / mbtree=0 / bitrate=3100 / ratetol=1.0 / qcomp=0.60 / qpmin=0 / qpmax=39 / qpstep=4 / cplxblur=20.0 / qblur=0.5 / ip_ratio=1.40 / pb_ratio=1.30 / aq=1:0.90
Язык : English
Default : Да
Forced : Нет
Основные цвета : BT.601 PAL
Характеристики трансфера : BT.470 System B, BT.470 System G
Коэффициенты матрицы : BT.601
colour_range : Limited
Аудио #1
Идентификатор : 2
Формат : AC-3
Формат/Информация : Audio Coding 3
Расширение режима : CM (complete main)
Параметр Endianness формата : Big
Идентификатор кодека : A_AC3
Продолжительность : 1 ч. 10 м.
Вид битрейта : Постоянный
Битрейт : 448 Кбит/сек
Каналы : 6 каналов
Расположение каналов : Front: L C R, Side: L R, LFE
Частота : 48,0 КГц
Битовая глубина : 16 бит
Метод сжатия : С потерями
Размер потока : 227 Мбайт (12%)
Язык : Russian
Default : Да
Forced : Нет
Аудио #2
Идентификатор : 3
Формат : AC-3
Формат/Информация : Audio Coding 3
Расширение режима : CM (complete main)
Параметр Endianness формата : Big
Идентификатор кодека : A_AC3
Продолжительность : 1 ч. 10 м.
Вид битрейта : Постоянный
Битрейт : 224 Кбит/сек
Каналы : 1 канал
Расположение каналов : Front: C
Частота : 48,0 КГц
Битовая глубина : 16 бит
Метод сжатия : С потерями
Размер потока : 113 Мбайт (6%)
Язык : Russian
Default : Нет
Forced : Нет

Релиз от:
Автор релиза:



   Похожие торренты   Торрент   Размер 
В этой теме нет новых непрочитанных сообщений. Тот самый Мюнхгаузен (1979) DVDRip

446 | 5

2.18 ГБ

В этой теме нет новых непрочитанных сообщений. Тот самый Мюнхгаузен (1979) DVDRip

42 | 10

720.91 МБ

В этой теме нет новых непрочитанных сообщений. Тот самый Мюнхгаузен (1979) DVDRip

22 | 6

1.37 ГБ

В этой теме нет новых непрочитанных сообщений. Тот самый Мюнхгаузен (1979) DVDRip от New-team

582 | 31

1.46 ГБ

В этой теме нет новых непрочитанных сообщений. Тот самый Мюнхгаузен (1979) DVDRip-AVC от New-team

153 | 17

2.19 ГБ

В этой теме нет новых непрочитанных сообщений. Тот самый Мюнхгаузен (1979) DVDRip от New-team

280 | 41

2.18 ГБ

В этой теме нет новых непрочитанных сообщений. Тот самый Мюнхгаузен (1979) DVDRip-AVC от Тorrent-Хzona

122 | 7

2.11 ГБ




Вы не можете начинать темы
Вы не можете отвечать на сообщения
Вы не можете редактировать свои сообщения
Вы не можете удалять свои сообщения
Вы не можете добавлять вложения

Перейти:  
Для Мосгорсуда, Роскомнадзора и рекламодателей: mosgorsud-torrent[собачка]yandex.ru
 Вход
ppkBB3cker v.2 © 2008-2014 @ PPK
[ Time : 0.040s | 15 Queries | GZIP : Off ]

cron