img image001 image001 image001 image001 image001 image001 image001 image001 image001 image001 image001 image001 image001 image001 image001

Planets Sun Sun Sun
Статистика раздачи
Автор: Nickolas3434 | Размер: 2.89 ГБ | Добавлен: 06 июн 2016
Раздают: 43    Качают: 4
Скачать торрент
Скачать торрент
Описание торрента

СообщениеДобавлено: 06 июн 2016 


Информация о фильме
Название: Александр Невский
Год выхода: 1938
Жанр: Драма, военный, история
Режиссер: Сергей Эйзенштейн, Дмитрий Васильев, Борис Иванов
В ролях: Николай Черкасов, Николай Охлопков, Андрей Абрикосов, Дмитрий Орлов, Николай Арский, Варвара Массалитинова, Валентина Ивашева, Александра Данилова, Владимир Ершов, Сергей Блинников
О фильме:
На западные рубежи Руси наступают войска Тевтонского Ордена. Они захватывают Псков, мучают и убивают местных жителей. Рыцари заранее делят ещё не завоеванные русские земли, присваивая себе титулы князей и надеясь на поддержку Папы Римского. Новгородский люд на вече решает собирать дружину и звать на командование ей опытного полководца князя Александра, прозванного Невским. Двое богатырей — Гаврила Алексич и Васька Буслаев (реальные личности) — сватаются к одной девице, и она решает, что выберет того, кто лучше покажет себя в битве. Войска сходятся к берегам замёрзшего Чудского озера. Перед боем один дружинник рассказывает князю басню о лисице, застрявшей в развилке дерева, куда её заманил заяц. Александр поступает похожим образом: строит свои войска клещами, в то время как «кабан» тевтонцев наступает прямо по центру. Русичи окружают врага, зажимают в «тиски» и разбивают его. Бросившиеся в бегство немцы тонут, проламывая тяжелыми доспехами лёд. Предводители агрессоров попадают в плен…
Страна: СССР / Мосфильм
Продолжительность: 01:43:33
Перевод: не требуется
Файл
Кодек: x264
Качество: DVDRip-AVC
Видео: MPEG4 AVC, 3800 Кбит/с, 714х574@762x574
Звук: AC3, 2 ch, 192 Кбит/с

raw [info]: 714x574p 16:15 @ 25/1 fps (cfr)
x264 [info]: using SAR=16/15
x264 [info]: using cpu capabilities: MMX2 SSE2Fast SSSE3 SSE4.2 AVX
x264 [info]: profile High, level 4.1
x264 [info]: frame I:934 Avg QP:17.17 size: 85810
x264 [info]: frame P:36966 Avg QP:20.40 size: 41011
x264 [info]: frame B:117448 Avg QP:22.69 size: 11540
=====================================================
Общее
Уникальный идентификатор : 235308513014836408686623747129745563458 (0xB106C569545A77278E5810F3C31F5F42)
Полное имя : D:Александр Невский_1938-DVDRip-AVC.mkv
Формат : Matroska
Версия формата : Version 2
Размер файла : 2,89 Гбайт
Продолжительность : 1 ч. 43 м.
Общий поток : 3994 Кбит/сек
Дата кодирования : UTC 2016-06-04 11:57:00
Программа кодирования : mkvmerge v5.8.0 ('No Sleep / Pillow') built on Sep 2 2012 15:37:04
Библиотека кодирования : libebml v1.2.3 + libmatroska v1.3.0
Видео
Идентификатор : 1
Формат : AVC
Формат/Информация : Advanced Video Codec
Профиль формата : High@L4.1
Параметр CABAC формата : Да
Параметр ReFrames формата : 16 кадров
Идентификатор кодека : V_MPEG4/ISO/AVC
Продолжительность : 1 ч. 43 м.
Битрейт : 3800 Кбит/сек
Ширина : 714 пикселей
Высота : 574 пикселя
Соотношение сторон : 4:3
Соотношение сторон в оригинале : 4:3
Режим частоты кадров : Постоянный
Частота кадров : 25,000 кадров/сек
Цветовое пространство : YUV
Субдискретизация насыщенности : 4:2:0
Битовая глубина : 8 бит
Тип развёртки : Прогрессивная
Бит/(Пиксели*Кадры) : 0.371
Размер потока : 2,69 Гбайт (93%)
Библиотека кодирования : x264 core 148 r2638 7599210
Настройки программы : cabac=1 / ref=16 / deblock=1:-2:-1 / analyse=0x3:0x133 / me=umh / subme=10 / psy=1 / psy_rd=1.05:0.12 / mixed_ref=1 / me_range=32 / chroma_me=1 / trellis=2 / 8x8dct=1 / cqm=0 / deadzone=21,11 / fast_pskip=0 / chroma_qp_offset=-3 / threads=12 / lookahead_threads=3 / sliced_threads=0 / nr=0 / decimate=0 / interlaced=0 / bluray_compat=0 / constrained_intra=0 / bframes=10 / b_pyramid=2 / b_adapt=2 / b_bias=0 / direct=3 / weightb=1 / open_gop=0 / weightp=2 / keyint=250 / keyint_min=25 / scenecut=40 / intra_refresh=0 / rc=2pass / mbtree=0 / bitrate=3800 / ratetol=1.0 / qcomp=0.63 / qpmin=0 / qpmax=39 / qpstep=4 / cplxblur=20.0 / qblur=0.5 / ip_ratio=1.40 / pb_ratio=1.30 / aq=2:0.90
Язык : English
Default : Да
Forced : Нет
Цветовой диапазон : Limited
Основные цвета : BT.601 PAL
Характеристики трансфера : BT.470 System B, BT.470 System G
Коэффициенты матрицы : BT.601
Аудио
Идентификатор : 2
Формат : AC-3
Формат/Информация : Audio Coding 3
Расширение режима : CM (complete main)
Параметр Endianness формата : Big
Идентификатор кодека : A_AC3
Продолжительность : 1 ч. 43 м.
Вид битрейта : Постоянный
Битрейт : 192 Кбит/сек
Каналы : 2 канала
Расположение каналов : Front: L R
Частота : 48,0 КГц
Метод сжатия : С потерями
Задержка видео : 66 мс.
Размер потока : 142 Мбайт (5%)
Язык : Russian
Default : Да
Forced : Нет
Меню
00:00:00.000 : ru:Chapter 1
00:01:56.520 : ru:Chapter 2
00:03:25.680 : ru:Chapter 3
00:11:09.440 : ru:Chapter 4
00:21:05.320 : ru:Chapter 5
00:29:04.160 : ru:Chapter 6
00:42:09.480 : ru:Chapter 7
00:48:52.960 : ru:Chapter 8
00:53:15.160 : ru:Chapter 9
01:01:54.920 : ru:Chapter 10
01:19:01.120 : ru:Chapter 11
01:29:40.040 : ru:Chapter 12

Релиз от:
Автор релиза:



   Похожие торренты   Торрент   Размер 
В этой теме нет новых непрочитанных сообщений. Александр Невский (1938) DVDRip

540 | 11

1.37 ГБ

В этой теме нет новых непрочитанных сообщений. Александр Невский (1938) DVDRip от New-Team

463 | 21

1.46 ГБ

В этой теме нет новых непрочитанных сообщений. Александр Невский (1938) DVDRip от New-Team

40 | 8

745.92 МБ

В этой теме нет новых непрочитанных сообщений. Александр Невский (1938) DVDRip-AVC от New-Team

417 | 50

1.46 ГБ

В этой теме нет новых непрочитанных сообщений. Александр Невский (1938) DVDRip от GeneralFilm

17 | 17

703.46 МБ

В этой теме нет новых непрочитанных сообщений. Александр Невский (1938) WEB-DL 720р от Korsar

2 | 0

3.39 ГБ

В этой теме нет новых непрочитанных сообщений. История войн: Александр Невский (2009) PC

243 | 20

4.33 ГБ




Вы не можете начинать темы
Вы не можете отвечать на сообщения
Вы не можете редактировать свои сообщения
Вы не можете удалять свои сообщения
Вы не можете добавлять вложения

Перейти:  
Для Мосгорсуда, Роскомнадзора и рекламодателей: mosgorsud-torrent[собачка]yandex.ru
 Вход
ppkBB3cker v.2 © 2008-2014 @ PPK
[ Time : 0.038s | 15 Queries | GZIP : Off ]

cron