img image001 image001 image001 image001 image001 image001 image001 image001 image001 image001 image001 image001 image001 image001 image001

Planets Sun Sun Sun
Статистика раздачи
Автор: Nickolas3434 | Размер: 3.22 ГБ | Добавлен: 06 июн 2016
Раздают: 19    Качают: 8
Скачать торрент
Скачать торрент
Описание торрента

СообщениеДобавлено: 06 июн 2016 


Информация о фильме
Название: Наше призвание
Год выхода: 1981
Жанр: Киноповесть, детский
Режиссер: Геннадий Полока
В ролях: Валерий Золотухин, Павел Кадочников, Василий Мищенко, Георгий Тейх, Игорь Наумов, Ия Саввина, Фёдор Никитин, Валентина Теличкина, Юлия Бурыгина, Ирина Ожеховская-Пескова, Юрий Голубицкий, Любовь Малиновская, Иван Бортник, Алексей Кожевников, Лилия Гурова, Наталья Михайлова, Наталия Флоренская, Владимир Сальников, Мария Овчинникова, Андрей Анкудинов, Юрий Попович, Елена Майорова, Ольга Ипполитова, Илона Броневицкая, Василий Семёнов, Леонид Захожаев, Владимир Смилянец, Юрий Вьюшин, Елена Шанина, Алексей Селиверстов, Анатолий Шлаустас, Лев Золотухин, Муза Крепкогорская
О фильме:
По произведениям, биографии, письмам и воспоминаниям писателя и педагога Михаила Гавриловича Огнева (Розанова). Начинающая журналистка Варя пишет статью о заслуженном учителе Николае Ивановиче Гудкове. В течение трех вечеров он рассказывает девушке о самоуправлении в школе 20-х годов, друзьях, любимом учителе Михаиле Гавриловиче, сыгравшем большую роль в становлении его характера и выборе жизненного пути. Фильм состоит из трех серий: «Первый вечер», «Второй вечер», «Третий вечер».
Страна: СССР, Беларусьфильм
Продолжительность: 3 х ~ 01:14:03
Перевод: не требуется
Файл
Кодек: x264
Качество: SATRip-AVC
Видео: MPEG-4 AVC, 2000 Кбит/с, 684x572@730x572
Звук: AC3, 2 ch, 192 Кбит/с

raw [info]: 684x572p 16:15 @ 25/1 fps (cfr)
x264 [info]: using SAR=16/15
x264 [info]: using cpu capabilities: MMX2 SSE2Fast SSSE3 SSE4.2 AVX
x264 [info]: profile High, level 4.1
x264 [info]: frame I:822 Avg QP:15.69 size: 67971
x264 [info]: frame P:27387 Avg QP:19.26 size: 23835
x264 [info]: frame B:78893 Avg QP:21.67 size: 4593
=======================================================
Общее
Уникальный идентификатор : 170409302094574025987111116316740688329 (0x8033A344EF3BAF4FA6EE73CA564019C9)
Полное имя : R:МОИ РИПЫНаше призвание_1981-SATRip-AVCПризвание-1.mkv
Формат : Matroska
Версия формата : Version 2
Размер файла : 1,09 Гбайт
Продолжительность : 1 ч. 11 м.
Общий поток : 2194 Кбит/сек
Дата кодирования : UTC 2016-06-03 15:23:21
Программа кодирования : mkvmerge v5.8.0 ('No Sleep / Pillow') built on Sep 2 2012 15:37:04
Библиотека кодирования : libebml v1.2.3 + libmatroska v1.3.0
Видео
Идентификатор : 1
Формат : AVC
Формат/Информация : Advanced Video Codec
Профиль формата : High@L4.1
Параметр CABAC формата : Да
Параметр ReFrames формата : 14 кадров
Идентификатор кодека : V_MPEG4/ISO/AVC
Продолжительность : 1 ч. 11 м.
Битрейт : 2000 Кбит/сек
Ширина : 684 пикселя
Высота : 572 пикселя
Соотношение сторон : 1,276
Режим частоты кадров : Постоянный
Частота кадров : 25,000 кадров/сек
Цветовое пространство : YUV
Субдискретизация насыщенности : 4:2:0
Битовая глубина : 8 бит
Тип развёртки : Прогрессивная
Бит/(Пиксели*Кадры) : 0.204
Размер потока : 1000 Мбайт (89%)
Библиотека кодирования : x264 core 148 r2638 7599210
Настройки программы : cabac=1 / ref=14 / deblock=1:-2:-2 / analyse=0x3:0x133 / me=umh / subme=10 / psy=1 / psy_rd=1.05:0.12 / mixed_ref=1 / me_range=32 / chroma_me=1 / trellis=2 / 8x8dct=1 / cqm=0 / deadzone=21,11 / fast_pskip=0 / chroma_qp_offset=-3 / threads=12 / lookahead_threads=2 / sliced_threads=0 / nr=0 / decimate=0 / interlaced=0 / bluray_compat=0 / constrained_intra=0 / bframes=8 / b_pyramid=2 / b_adapt=2 / b_bias=0 / direct=3 / weightb=1 / open_gop=0 / weightp=2 / keyint=250 / keyint_min=25 / scenecut=40 / intra_refresh=0 / rc=2pass / mbtree=0 / bitrate=2000 / ratetol=1.0 / qcomp=0.63 / qpmin=0 / qpmax=39 / qpstep=4 / cplxblur=20.0 / qblur=0.5 / ip_ratio=1.40 / pb_ratio=1.30 / aq=1:1.00
Язык : English
Default : Да
Forced : Нет
Цветовой диапазон : Limited
Основные цвета : BT.601 PAL
Характеристики трансфера : BT.470 System B, BT.470 System G
Коэффициенты матрицы : BT.601
Аудио
Идентификатор : 2
Формат : AC-3
Формат/Информация : Audio Coding 3
Расширение режима : CM (complete main)
Параметр Endianness формата : Big
Идентификатор кодека : A_AC3
Продолжительность : 1 ч. 11 м.
Вид битрейта : Постоянный
Битрейт : 192 Кбит/сек
Каналы : 2 канала
Расположение каналов : Front: L R
Частота : 48,0 КГц
Метод сжатия : С потерями
Размер потока : 98,1 Мбайт (9%)
Язык : Russian
Default : Да
Forced : Нет

Релиз от:
Автор релиза:



   Похожие торренты   Торрент   Размер 
В этой теме нет новых непрочитанных сообщений. Мы, нижеподписавшиеся (1981) SATRip-AVC от ExKinoRay

93 | 18

2.46 ГБ

В этой теме нет новых непрочитанных сообщений. Чёрный треугольник (1981) SATRip-AVC от ExKinoRay

90 | 9

2.94 ГБ

В этой теме нет новых непрочитанных сообщений. Американская трагедия (1981) SATRip-AVC от ExKinoRay

73 | 38

5.72 ГБ

В этой теме нет новых непрочитанных сообщений. Приключения Тома Сойера и Гекльберри Финна (1981) SATRip-AVC от ExKinoRay

367 | 60

4.22 ГБ

В этой теме нет новых непрочитанных сообщений. Призвание / The Calling (2014) WEB-DL 720p | L1

482 | 50

3.61 ГБ

В этой теме нет новых непрочитанных сообщений. Призвание / The Calling (2014) WEB-DLRip | L1

1678 | 155

1.45 ГБ

В этой теме нет новых непрочитанных сообщений. Призвание. 16 серий из 16 (2005) DVDRip

145 | 23

8.7 ГБ




Вы не можете начинать темы
Вы не можете отвечать на сообщения
Вы не можете редактировать свои сообщения
Вы не можете удалять свои сообщения
Вы не можете добавлять вложения

Перейти:  
Для Мосгорсуда, Роскомнадзора и рекламодателей: mosgorsud-torrent[собачка]yandex.ru
 Вход
ppkBB3cker v.2 © 2008-2014 @ PPK
[ Time : 0.034s | 15 Queries | GZIP : Off ]

Торрент трекер RUTOR.IN, Не можете зайти на rutor.org? Какой новый адрес рутор? Какое зеркало рутор? Не работает rutor.org и зеркала? Тогда наш торрент специально для вас. Rutor.in неофициальное зеркало rutor. В случае если у Вас заблокирован rutor или вдруг Вы не можете на него зайти, то Вы без труда сможете скачать бесплатно и без рекламы последние новинки кино, игр, сериалов и прочего у нас, на Rutor.in. Не нужно использовать прокси, чтобы зайти на рутор, достаточно воспользоваться нашим ресурсом. Все новые фильмы, игры, сериалы, книги и музыка за 2013 и 2014 годы через торрент бесплатно. Скачивайте фильмы в хорошем качестве, игры для пк, xbox, playstation без регистрации. У нас вы найдете новые Зарубежные сериалы и Русские сериалы 2013, 2014, 2015 годов. Оставайтесь с нами, качайте любимые фильмы, игры, сериалы, книги и музыку.
cron