img image001 image001 image001 image001 image001 image001 image001 image001 image001 image001 image001 image001 image001 image001 image001

Planets Sun Sun Sun
Статистика раздачи
Автор: Nickolas3434 | Размер: 1.39 ГБ | Добавлен: 06 июн 2016
Раздают: 15    Качают: 3
Скачать торрент
Скачать торрент
Описание торрента

СообщениеДобавлено: 06 июн 2016 


Информация о фильме
Название: Удар! Еще удар!
Год выхода: 1968
Жанр: Комедия, спорт
Режиссер: Виктор Садовский
В ролях: Юрий Волков, Виктор Коршунов, Алексей Смирнов, Валентин Смирнитский, Алексей Кожевников, Александр Анисимов, Гликерия Богданова-Чеснокова, Борис Быстров, Юрий Дедович, Герман Дмитриев, Галина Яцкина
О фильме:
В основе сюжета спортивной драмы — финальный матч по футболу в Стокгольме. Играют — ленинградская команда «Заря» и западноевропейская команда «Рифы». Сергей Таманцев, сын тренера и лучший игрок «Зари», накануне побывал в гостях у знакомой девушки и вернулся на базу только под утро, за что был отстранен от участия в матче. Но когда положение команды на поле стало угрожающим, Таманцев-старший выпустил Сергея на поле…
Страна: СССР, Ленфильм
Продолжительность: 01:30:58
Перевод: не требуется
Файл
Кодек: x264
Качество: SATRip-AVC
Видео: MPEG-4 AVC, 2000 Кбит/с, 698x430@744x430
Звук: AC3, 2 ch, 192 Кбит/с

raw [info]: 698x430p 16:15 @ 25/1 fps (cfr)
x264 [info]: using SAR=16/15
x264 [info]: using cpu capabilities: MMX2 SSE2Fast SSSE3 SSE4.2 AVX
x264 [info]: profile High, level 4.1
x264 [info]: frame I:763 Avg QP:15.17 size: 56315
x264 [info]: frame P:35858 Avg QP:18.05 size: 22871
x264 [info]: frame B:99842 Avg QP:20.28 size: 5023
=======================================================
Общее
Уникальный идентификатор : 185696327994112827208486819992930430637 (0x8BB3CFD65CCA3076A09748CD7C4D2EAD)
Полное имя : D:Удар! Ещё удар_1968-SATRip-AVC.mkv
Формат : Matroska
Версия формата : Version 2
Размер файла : 1,39 Гбайт
Продолжительность : 1 ч. 30 м.
Общий поток : 2194 Кбит/сек
Дата кодирования : UTC 2016-06-05 21:16:46
Программа кодирования : mkvmerge v5.8.0 ('No Sleep / Pillow') built on Sep 2 2012 15:37:04
Библиотека кодирования : libebml v1.2.3 + libmatroska v1.3.0
Видео
Идентификатор : 1
Формат : AVC
Формат/Информация : Advanced Video Codec
Профиль формата : High@L4.1
Параметр CABAC формата : Да
Параметр ReFrames формата : 14 кадров
Идентификатор кодека : V_MPEG4/ISO/AVC
Продолжительность : 1 ч. 30 м.
Битрейт : 2000 Кбит/сек
Ширина : 698 пикселей
Высота : 430 пикселей
Соотношение сторон : 1,730
Соотношение сторон в оригинале : 1,731
Режим частоты кадров : Постоянный
Частота кадров : 25,000 кадров/сек
Цветовое пространство : YUV
Субдискретизация насыщенности : 4:2:0
Битовая глубина : 8 бит
Тип развёртки : Прогрессивная
Бит/(Пиксели*Кадры) : 0.267
Размер потока : 1,24 Гбайт (89%)
Библиотека кодирования : x264 core 148 r2638 7599210
Настройки программы : cabac=1 / ref=14 / deblock=1:-2:-2 / analyse=0x3:0x133 / me=umh / subme=10 / psy=1 / psy_rd=1.05:0.13 / mixed_ref=1 / me_range=32 / chroma_me=1 / trellis=2 / 8x8dct=1 / cqm=0 / deadzone=21,11 / fast_pskip=0 / chroma_qp_offset=-3 / threads=12 / lookahead_threads=2 / sliced_threads=0 / nr=0 / decimate=0 / interlaced=0 / bluray_compat=0 / constrained_intra=0 / bframes=9 / b_pyramid=2 / b_adapt=2 / b_bias=0 / direct=3 / weightb=1 / open_gop=0 / weightp=2 / keyint=250 / keyint_min=25 / scenecut=40 / intra_refresh=0 / rc_lookahead=60 / rc=2pass / mbtree=1 / bitrate=2000 / ratetol=1.0 / qcomp=0.65 / qpmin=0 / qpmax=39 / qpstep=4 / cplxblur=20.0 / qblur=0.5 / ip_ratio=1.30 / aq=1:1.00
Язык : English
Default : Да
Forced : Нет
Цветовой диапазон : Limited
Основные цвета : BT.601 PAL
Характеристики трансфера : BT.470 System B, BT.470 System G
Коэффициенты матрицы : BT.601
Аудио
Идентификатор : 2
Формат : AC-3
Формат/Информация : Audio Coding 3
Расширение режима : CM (complete main)
Параметр Endianness формата : Big
Идентификатор кодека : A_AC3
Продолжительность : 1 ч. 30 м.
Вид битрейта : Постоянный
Битрейт : 192 Кбит/сек
Каналы : 2 канала
Расположение каналов : Front: L R
Частота : 48,0 КГц
Метод сжатия : С потерями
Размер потока : 125 Мбайт (9%)
Язык : Russian
Default : Да
Forced : Нет

Релиз от:
Автор релиза:



   Похожие торренты   Торрент   Размер 
В этой теме нет новых непрочитанных сообщений. Удар! Еще удар! (1968) DVDRip

44 | 8

1.37 ГБ

В этой теме нет новых непрочитанных сообщений. Тепловой удар / Солнечный удар / Heatstroke (2013) BDRemux 1080p от NovaLan

31 | 23

18.49 ГБ

В этой теме нет новых непрочитанных сообщений. Тепловой удар / Солнечный удар / Heatstroke (2013) BDRip 1080p от NovaLan

147 | 42

7.39 ГБ

В этой теме нет новых непрочитанных сообщений. Тепловой удар / Солнечный удар / Heatstroke (2013) BDRip | L1

145 | 8

1.42 ГБ

В этой теме нет новых непрочитанных сообщений. Жемчужина кунг-фу / Смертельный удар / Легендарный удар / Lang tzu yi chao / The Legendary Strike (1978) DVDRip от Scarabey | A

59 | 5

1.45 ГБ

В этой теме нет новых непрочитанных сообщений. Почтальон наносит ответный удар / Ответный удар / Xun cheng ma (1982) DVDRip | P

56 | 22

1.47 ГБ

В этой теме нет новых непрочитанных сообщений. Драйв / Удар / Kick (2014) HDRip-AVC от ExKinoRay | L

1312 | 220

2.64 ГБ




Вы не можете начинать темы
Вы не можете отвечать на сообщения
Вы не можете редактировать свои сообщения
Вы не можете удалять свои сообщения
Вы не можете добавлять вложения

Перейти:  
Для Мосгорсуда, Роскомнадзора и рекламодателей: mosgorsud-torrent[собачка]yandex.ru
 Вход
ppkBB3cker v.2 © 2008-2014 @ PPK
[ Time : 0.044s | 17 Queries | GZIP : Off ]

Торрент трекер RUTOR.IN, Не можете зайти на rutor.org? Какой новый адрес рутор? Какое зеркало рутор? Не работает rutor.org и зеркала? Тогда наш торрент специально для вас. Rutor.in неофициальное зеркало rutor. В случае если у Вас заблокирован rutor или вдруг Вы не можете на него зайти, то Вы без труда сможете скачать бесплатно и без рекламы последние новинки кино, игр, сериалов и прочего у нас, на Rutor.in. Не нужно использовать прокси, чтобы зайти на рутор, достаточно воспользоваться нашим ресурсом. Все новые фильмы, игры, сериалы, книги и музыка за 2013 и 2014 годы через торрент бесплатно. Скачивайте фильмы в хорошем качестве, игры для пк, xbox, playstation без регистрации. У нас вы найдете новые Зарубежные сериалы и Русские сериалы 2013, 2014, 2015 годов. Оставайтесь с нами, качайте любимые фильмы, игры, сериалы, книги и музыку.
cron