img image001 image001 image001 image001 image001 image001 image001 image001 image001 image001 image001 image001 image001 image001 image001

Planets Sun Sun Sun
Статистика раздачи
Автор: Nickolas3434 | Размер: 744.26 МБ | Добавлен: 08 июн 2016
Раздают: 12    Качают: 6
Скачать торрент
Скачать торрент
Описание торрента

СообщениеДобавлено: 08 июн 2016 

Страна: СССР
Производство: Одесская киностудия
Жанр: драма
Год выпуска: 1955
Продолжительность: 01:06:39
Перевод: Не требуется
Cубтитры: нет
Оригинальная аудиодорожка: русский
Режиссер: Марианна Рошаль, Владимир Шредель
В ролях:
Виктор Кольцов (Кутаков), Володя Поляков, Наталья Гицерот, Александр Антонов...
Полный список актёров
Описание:
Cтереофильм по одноименному рассказу А.Куприна.
Крым. Берег моря. Старый шарманщик, юный акробат Сережа и их преданный друг пудель Арто зарабатывают деньги своими незатейливыми выступлениями перед дачниками. На одной из богатых дач им предлагают продать пуделя. Старый шарманщик отвечает отказом, он не может расстаться со своим другом. Тогда собаку похищают. Обратиться к властям за помощью старик не может - у него нет паспорта. И все-таки Сереже удается освободить любимого пса, и, опасаясь преследований, комедианты вновь отправляются в путь.





Источник: DVD5 R5
Качество видео: DVDRip
Формат видео: AVI
Видео: 640x480 (4:3), 25 fps, XviD ~ 1423 kbps avg, 0.185 bit/pixel
Аудио: 48 kHz, MP3 2.0, 128 kbps
Раздача от:
Общее
Полное имя : Beliy.pudel.1955.DVDRip-745_[New-team]_by_AVP_Studio.avi
Формат : AVI
Формат/Информация : Audio Video Interleave
Размер файла : 744 Мбайт
Продолжительность : 1 ч. 6 м.
Общий поток : 1561 Кбит/сек
Программа кодирования : VirtualDubMod 1.5.10.3 | www.virtualdub-fr.org || (build 2550/release)
Библиотека кодирования : VirtualDubMod build 2550/release
Видео
Идентификатор : 0
Формат : MPEG-4 Visual
Профиль формата : Advanced Simple@L5
Параметр BVOP формата : 1
Параметр QPel формата : Нет
Параметр GMC формата : Без точки перехода
Параметр матрицы формата : Выборочная
Идентификатор кодека : XVID
Идентификатор кодека/Подсказка : XviD
Продолжительность : 1 ч. 6 м.
Битрейт : 1423 Кбит/сек
Ширина : 640 пикселей
Высота : 480 пикселей
Соотношение сторон : 4:3
Частота кадров : 25,000 кадров/сек
Цветовое пространство : YUV
Субдискретизация насыщенности : 4:2:0
Битовая глубина : 8 бит
Тип развёртки : Прогрессивная
Метод сжатия : С потерями
Бит/(Пиксели*Кадры) : 0.185
Размер потока : 679 Мбайт (91%)
Библиотека кодирования : XviD 1.2.1 (UTC 2008-12-04)
Аудио
Идентификатор : 1
Формат : MPEG Audio
Версия формата : Version 1
Профиль формата : Layer 3
Идентификатор кодека : 55
Идентификатор кодека/Подсказка : MP3
Продолжительность : 1 ч. 6 м.
Вид битрейта : Постоянный
Битрейт : 128 Кбит/сек
Каналы : 2 канала
Частота : 48,0 КГц
Метод сжатия : С потерями
Размер потока : 61,0 Мбайт (8%)
Выравнивание : Соединение по промежуткам
Продолжительность промежутка : 40 мс. (1,00 видеокадр)
Время предзагрузки промежутка : 504 мс.
Библиотека кодирования : LAME3.99r
Настройки программы : -m s -V 4 -q 2 -lowpass 17 -b 128





   Похожие торренты   Торрент   Размер 
В этой теме нет новых непрочитанных сообщений. Белый пудель (1955) DVDRip от New-Team

19 | 7

1.09 ГБ

В этой теме нет новых непрочитанных сообщений. Белый пудель (1955) DVDRip-AVC от New-Team

25 | 8

1.09 ГБ

В этой теме нет новых непрочитанных сообщений. Белый пудель (1955) DVDRip

14 | 2

697.47 МБ

В этой теме нет новых непрочитанных сообщений. Пудель / Caniche (1979) DVDRip-AVC

46 | 4

882.94 МБ

В этой теме нет новых непрочитанных сообщений. Мексиканец (1955) DVDRip от New-Team

29 | 7

743.75 МБ

В этой теме нет новых непрочитанных сообщений. Мать (1955) DVDRip от New-Team

8 | 5

1.09 ГБ

В этой теме нет новых непрочитанных сообщений. Отелло (1955) DVDRip от New-Team

12 | 5

1.46 ГБ




Вы не можете начинать темы
Вы не можете отвечать на сообщения
Вы не можете редактировать свои сообщения
Вы не можете удалять свои сообщения
Вы не можете добавлять вложения

Перейти:  
Для Мосгорсуда, Роскомнадзора и рекламодателей: mosgorsud-torrent[собачка]yandex.ru
 Вход
ppkBB3cker v.2 © 2008-2014 @ PPK
[ Time : 2.693s | 15 Queries | GZIP : Off ]

Торрент трекер RUTOR.IN, Не можете зайти на rutor.org? Какой новый адрес рутор? Какое зеркало рутор? Не работает rutor.org и зеркала? Тогда наш торрент специально для вас. Rutor.in неофициальное зеркало rutor. В случае если у Вас заблокирован rutor или вдруг Вы не можете на него зайти, то Вы без труда сможете скачать бесплатно и без рекламы последние новинки кино, игр, сериалов и прочего у нас, на Rutor.in. Не нужно использовать прокси, чтобы зайти на рутор, достаточно воспользоваться нашим ресурсом. Все новые фильмы, игры, сериалы, книги и музыка за 2013 и 2014 годы через торрент бесплатно. Скачивайте фильмы в хорошем качестве, игры для пк, xbox, playstation без регистрации. У нас вы найдете новые Зарубежные сериалы и Русские сериалы 2013, 2014, 2015 годов. Оставайтесь с нами, качайте любимые фильмы, игры, сериалы, книги и музыку.