img image001 image001 image001 image001 image001 image001 image001 image001 image001 image001 image001 image001 image001 image001 image001

Planets Sun Sun Sun
Статистика раздачи
Автор: Nickolas3434 | Размер: 2.41 ГБ | Добавлен: 09 июн 2016
Раздают: 170    Качают: 13
Скачать торрент
Скачать торрент
Описание торрента

СообщениеДобавлено: 09 июн 2016 


Информация о фильме
Название: Не будите спящую собаку
Год выхода: 1991
Жанр: Комедия
Режиссер: Анатолий Бобровский
В ролях: Алексей Жарков, Виктор Павлов, Елена Попова, Владимир Этуш, Сергей Бадичкин, Николай Бармин, Анатолий Бобровский, Эммануил Виторган, Анатолий Голик, Вадим Грачёв, Николай Гудзь, Виктор Демерташ, Игорь Кашинцев, Ирина Лазарева, Александр Литовкин, Юрий Мартынов, Геннадий Матвеев, Татьяна Новицкая, Владимир Привалов, Любовь Руденко, Сергей Силкин, Владимир Сошальский, Виктор Филиппов, Елена Борзова, Юрий Платонов, Николай Сморчков
О фильме:
Один из самых удачных отечественных фильмов об аферистах. Очутившись на свободе, рецидивист Чибис (А. Жарков) и криминальный авторитет (В. Этуш) решаются на сложную, но очень денежную афёру. Они задумали «кинуть» своего друга и подельника по воровству - богатого цеховика и барыгу (В. Павлов). Прекрасный кастинг, великолепная игра актеров, ироничный и продуманный сценарий, сильная режиссёрская работа ставят эту картину в один ряд с лучшими отечественными и зарубежними фильмами криминального жанра
Страна: СССР, Тискино
Продолжительность: 02:04:30
Перевод: не требуется
Файл
Кодек: x264
Качество: DVDRip-AVC
Видео: MPEG-4 AVC, 2550 Кбит/с, 692x572@752x572
Звук: AC3, 2 ch, 224 Кбит/с

x264 [info]: frame I:991 Avg QP:16.76 size: 78734
x264 [info]: frame P:38138 Avg QP:20.14 size: 29807
x264 [info]: frame B:147624 Avg QP:21.83 size: 7900
x264 [info]: consecutive B-frames: 1.1% 1.3% 6.9% 15.6% 22.7% 44.4% 5.8% 1.2% 0.7% 0.3%
========================================================
Общее
Уникальный идентификатор : 254776794703070865034109380515720611545 (0xBFAC39CE615F228285BAE766F4C846D9)
Полное имя : D:Не будите спящую собаку_1991-DVDRip-AVC.mkv
Формат : Matroska
Версия формата : Version 2
Размер файла : 2,41 Гбайт
Продолжительность : 2 ч. 4 м.
Общий поток : 2776 Кбит/сек
Дата кодирования : UTC 2016-06-07 07:43:07
Программа кодирования : mkvmerge v5.8.0 ('No Sleep / Pillow') built on Sep 2 2012 15:37:04
Библиотека кодирования : libebml v1.2.3 + libmatroska v1.3.0
Видео
Идентификатор : 1
Формат : AVC
Формат/Информация : Advanced Video Codec
Профиль формата : High@L4.1
Параметр CABAC формата : Да
Параметр ReFrames формата : 15 кадров
Идентификатор кодека : V_MPEG4/ISO/AVC
Продолжительность : 2 ч. 4 м.
Битрейт : 2550 Кбит/сек
Ширина : 692 пикселя
Высота : 572 пикселя
Соотношение сторон : 4:3
Режим частоты кадров : Постоянный
Частота кадров : 25,000 кадров/сек
Цветовое пространство : YUV
Субдискретизация насыщенности : 4:2:0
Битовая глубина : 8 бит
Тип развёртки : Прогрессивная
Бит/(Пиксели*Кадры) : 0.258
Размер потока : 2,17 Гбайт (90%)
Библиотека кодирования : x264 core 148 r2638 7599210
Настройки программы : cabac=1 / ref=15 / deblock=1:-2:-2 / analyse=0x3:0x133 / me=umh / subme=10 / psy=1 / psy_rd=1.03:0.12 / mixed_ref=1 / me_range=32 / chroma_me=1 / trellis=2 / 8x8dct=1 / cqm=0 / deadzone=21,11 / fast_pskip=0 / chroma_qp_offset=-3 / threads=12 / lookahead_threads=2 / sliced_threads=0 / nr=0 / decimate=0 / interlaced=0 / bluray_compat=0 / constrained_intra=0 / bframes=9 / b_pyramid=2 / b_adapt=2 / b_bias=0 / direct=3 / weightb=1 / open_gop=0 / weightp=2 / keyint=250 / keyint_min=25 / scenecut=40 / intra_refresh=0 / rc=2pass / mbtree=0 / bitrate=2550 / ratetol=1.0 / qcomp=0.63 / qpmin=0 / qpmax=39 / qpstep=4 / cplxblur=20.0 / qblur=0.5 / ip_ratio=1.40 / pb_ratio=1.30 / aq=1:1.00
Язык : English
Default : Да
Forced : Нет
Цветовой диапазон : Limited
Основные цвета : BT.601 PAL
Характеристики трансфера : BT.470 System B, BT.470 System G
Коэффициенты матрицы : BT.601
Аудио
Идентификатор : 2
Формат : AC-3
Формат/Информация : Audio Coding 3
Расширение режима : CM (complete main)
Параметр Endianness формата : Big
Идентификатор кодека : A_AC3
Продолжительность : 2 ч. 4 м.
Вид битрейта : Постоянный
Битрейт : 224 Кбит/сек
Каналы : 2 канала
Расположение каналов : Front: L R
Частота : 48,0 КГц
Метод сжатия : С потерями
Размер потока : 199 Мбайт (8%)
Язык : Russian
Default : Да
Forced : Нет
Меню
00:00:00.000 : ru:Chapter 1
00:05:01.800 : ru:Chapter 2
00:11:34.200 : ru:Chapter 3
00:16:05.880 : ru:Chapter 4
00:22:58.800 : ru:Chapter 5
00:27:51.240 : ru:Chapter 6
00:32:54.960 : ru:Chapter 7
00:40:13.440 : ru:Chapter 8
00:44:26.160 : ru:Chapter 9
00:49:54.000 : ru:Chapter 10
00:55:28.320 : ru:Chapter 11
01:02:25.080 : ru:Chapter 12
01:06:53.560 : ru:Chapter 13
01:12:16.960 : ru:Chapter 14
01:17:33.880 : ru:Chapter 15
01:22:14.560 : ru:Chapter 16
01:27:04.600 : ru:Chapter 17
01:32:30.280 : ru:Chapter 18
01:37:30.160 : ru:Chapter 19
01:42:54.640 : ru:Chapter 20
01:47:55.000 : ru:Chapter 21
01:52:12.640 : ru:Chapter 22
01:57:30.400 : ru:Chapter 23
02:02:35.440 : ru:Chapter 24

Релиз от:
Автор релиза:



   Похожие торренты   Торрент   Размер 
В этой теме нет новых непрочитанных сообщений. Не будите спящую собаку (1991) DVDRip от Alekxandr48

382 | 7

1.37 ГБ

В этой теме нет новых непрочитанных сообщений. Не будите спящую собаку (1991) DVD5

27 | 7

4.21 ГБ

В этой теме нет новых непрочитанных сообщений. Не будите спящую собаку / Flirting with Disaster (1996) BDRip от HQCLUB

14 | 3

1.46 ГБ

В этой теме нет новых непрочитанных сообщений. Не будите спящую собаку / Flirting with Disaster (1996) BDRip-AVC by msltel

137 | 16

2.4 ГБ

В этой теме нет новых непрочитанных сообщений. Не будите спящую собаку / Flirting with Disaster (1996) BDRip 720p от HQCLUB

2 | 1

5.3 ГБ

В этой теме нет новых непрочитанных сообщений. Не будите спящую собаку / Flirting with Disaster (1996) BDRip 1080p by msltel

36 | 2

9.01 ГБ

В этой теме нет новых непрочитанных сообщений. Не будите спящую собаку / Flirting with Disaster (1996) BDRip 720p by msltel

34 | 6

3.76 ГБ




Вы не можете начинать темы
Вы не можете отвечать на сообщения
Вы не можете редактировать свои сообщения
Вы не можете удалять свои сообщения
Вы не можете добавлять вложения

Перейти:  
Для Мосгорсуда, Роскомнадзора и рекламодателей: mosgorsud-torrent[собачка]yandex.ru
 Вход
ppkBB3cker v.2 © 2008-2014 @ PPK
[ Time : 0.032s | 15 Queries | GZIP : Off ]

Торрент трекер RUTOR.IN, Не можете зайти на rutor.org? Какой новый адрес рутор? Какое зеркало рутор? Не работает rutor.org и зеркала? Тогда наш торрент специально для вас. Rutor.in неофициальное зеркало rutor. В случае если у Вас заблокирован rutor или вдруг Вы не можете на него зайти, то Вы без труда сможете скачать бесплатно и без рекламы последние новинки кино, игр, сериалов и прочего у нас, на Rutor.in. Не нужно использовать прокси, чтобы зайти на рутор, достаточно воспользоваться нашим ресурсом. Все новые фильмы, игры, сериалы, книги и музыка за 2013 и 2014 годы через торрент бесплатно. Скачивайте фильмы в хорошем качестве, игры для пк, xbox, playstation без регистрации. У нас вы найдете новые Зарубежные сериалы и Русские сериалы 2013, 2014, 2015 годов. Оставайтесь с нами, качайте любимые фильмы, игры, сериалы, книги и музыку.