img image001 image001 image001 image001 image001 image001 image001 image001 image001 image001 image001 image001 image001 image001 image001

Planets Sun Sun Sun
Статистика раздачи
Автор: Nickolas3434 | Размер: 1.37 ГБ | Добавлен: 09 июн 2016
Раздают: 27    Качают: 4
Скачать торрент
Скачать торрент
Описание торрента

СообщениеДобавлено: 09 июн 2016 


Информация о фильме
Название: Хоккеисты
Год выхода: 1964
Жанр: Драма, спорт
Режиссер: Рафаил Гольдин
В ролях: Владимир Ивашов, Эльза Леждей, Николай Озеров, Николай Рыбников, Вячеслав Шалевич, Геннадий Юхтин, Яков Ленц, Лев Дуров, Василий Нещипленко, Юлия Диоши, Михаил Глузский, Георгий Жжёнов, Люсьена Овчинникова, Александр Орлов, Клавдия Половикова, Евгений Шутов
О фильме:
Тридцатилетний капитан хоккейной команды "Ракеты" Дуганов, знаменитый и опытный игрок, решает бороться за спортивное долголетие таких «стариков», как он, пытается доказать, что ему еще рано на пенсию. Но в спорте, в том числе и в хоккее, давно сложился определенный стереотип: в 16 лет игрок считается еще юниором, в 18 лет молодым игроком во взрослой команде, а в 25 лет - уже ветераном. Остро переживая ссору с любимой девушкой Майей, Дуганов добивается участия в решающем финальном матче между двумя сильнейшими командами — и добивается победы команды...
Страна: СССР, Мосфильм
Продолжительность: 01:33:21
Перевод: не требуется
Файл
Кодек: x264
Качество: SATRip-AVC
Видео: MPEG-4 AVC, 1900 Кбит/с, 720x330@768x330
Звук: AC3, 2 ch, 192 Кбит/с

raw [info]: 720x330p 16:15 @ 25/1 fps (cfr)
x264 [info]: using SAR=16/15
x264 [info]: using cpu capabilities: MMX2 SSE2Fast SSSE3 SSE4.2 AVX
x264 [info]: profile High, level 4.1
x264 [info]: frame I:903 Avg QP:17.21 size: 44252
x264 [info]: frame P:35739 Avg QP:19.69 size: 19524
x264 [info]: frame B:103396 Avg QP:21.66 size: 5731
====================================================
Общее
Уникальный идентификатор : 191570288474770333271628219281652590634 (0x901F1872DFE0BDF6A47E30EC4EF0282A)
Полное имя : D:Хоккеисты_1964-SATRip-AVC.mkv
Формат : Matroska
Версия формата : Version 2
Размер файла : 1,37 Гбайт
Продолжительность : 1 ч. 33 м.
Общий поток : 2094 Кбит/сек
Дата кодирования : UTC 2016-06-07 14:17:08
Программа кодирования : mkvmerge v5.8.0 ('No Sleep / Pillow') built on Sep 2 2012 15:37:04
Библиотека кодирования : libebml v1.2.3 + libmatroska v1.3.0
Видео
Идентификатор : 1
Формат : AVC
Формат/Информация : Advanced Video Codec
Профиль формата : High@L4.1
Параметр CABAC формата : Да
Параметр ReFrames формата : 15 кадров
Идентификатор кодека : V_MPEG4/ISO/AVC
Продолжительность : 1 ч. 33 м.
Битрейт : 1900 Кбит/сек
Ширина : 720 пикселей
Высота : 330 пикселей
Соотношение сторон : 2,35:1
Режим частоты кадров : Постоянный
Частота кадров : 25,000 кадров/сек
Цветовое пространство : YUV
Субдискретизация насыщенности : 4:2:0
Битовая глубина : 8 бит
Тип развёртки : Прогрессивная
Бит/(Пиксели*Кадры) : 0.320
Размер потока : 1,21 Гбайт (89%)
Библиотека кодирования : x264 core 148 r2638 7599210
Настройки программы : cabac=1 / ref=15 / deblock=1:-2:-2 / analyse=0x3:0x133 / me=umh / subme=10 / psy=1 / psy_rd=1.05:0.12 / mixed_ref=1 / me_range=32 / chroma_me=1 / trellis=2 / 8x8dct=1 / cqm=0 / deadzone=21,11 / fast_pskip=0 / chroma_qp_offset=-3 / threads=10 / lookahead_threads=1 / sliced_threads=0 / nr=0 / decimate=0 / interlaced=0 / bluray_compat=0 / constrained_intra=0 / bframes=8 / b_pyramid=2 / b_adapt=2 / b_bias=0 / direct=3 / weightb=1 / open_gop=0 / weightp=2 / keyint=250 / keyint_min=25 / scenecut=40 / intra_refresh=0 / rc=2pass / mbtree=0 / bitrate=1900 / ratetol=1.0 / qcomp=0.63 / qpmin=0 / qpmax=39 / qpstep=4 / cplxblur=20.0 / qblur=0.5 / ip_ratio=1.25 / pb_ratio=1.30 / aq=1:1.00
Язык : English
Default : Да
Forced : Нет
Цветовой диапазон : Limited
Основные цвета : BT.601 PAL
Характеристики трансфера : BT.470 System B, BT.470 System G
Коэффициенты матрицы : BT.601
Аудио
Идентификатор : 2
Формат : AC-3
Формат/Информация : Audio Coding 3
Расширение режима : CM (complete main)
Параметр Endianness формата : Big
Идентификатор кодека : A_AC3
Продолжительность : 1 ч. 33 м.
Вид битрейта : Постоянный
Битрейт : 192 Кбит/сек
Каналы : 2 канала
Расположение каналов : Front: L R
Частота : 48,0 КГц
Метод сжатия : С потерями
Размер потока : 128 Мбайт (9%)
Язык : Russian
Default : Да
Forced : Нет

Релиз от:
Автор релиза:



   Похожие торренты   Торрент   Размер 
В этой теме нет новых непрочитанных сообщений. Хоккеисты (1964) WEBRip

47 | 8

1.54 ГБ

В этой теме нет новых непрочитанных сообщений. Мне двадцать лет (1964) DVDRip-AVC от ExKinoRay

208 | 70

3.37 ГБ

В этой теме нет новых непрочитанных сообщений. Месье / Monsieur (1964) DVDRip от ExKinoRay

8 | 2

1.37 ГБ

В этой теме нет новых непрочитанных сообщений. Человек из Рио / L'Homme de Rio (1964) DVDRip от ExKinoRay

29 | 9

1.38 ГБ

В этой теме нет новых непрочитанных сообщений. Донская повесть (1964) DVDRip-AVC от ExKinoRay

54 | 7

2.32 ГБ

В этой теме нет новых непрочитанных сообщений. Пядь земли (1964) DVDRip-AVC от ExKinoRay

374 | 48

1.65 ГБ

В этой теме нет новых непрочитанных сообщений. Женитьба Бальзаминова (1964) HDDVDRip 720p от ExKinoRay

205 | 38

4.24 ГБ




Вы не можете начинать темы
Вы не можете отвечать на сообщения
Вы не можете редактировать свои сообщения
Вы не можете удалять свои сообщения
Вы не можете добавлять вложения

Перейти:  
Для Мосгорсуда, Роскомнадзора и рекламодателей: mosgorsud-torrent[собачка]yandex.ru
 Вход
ppkBB3cker v.2 © 2008-2014 @ PPK
[ Time : 0.129s | 14 Queries | GZIP : Off ]

Торрент трекер RUTOR.IN, Не можете зайти на rutor.org? Какой новый адрес рутор? Какое зеркало рутор? Не работает rutor.org и зеркала? Тогда наш торрент специально для вас. Rutor.in неофициальное зеркало rutor. В случае если у Вас заблокирован rutor или вдруг Вы не можете на него зайти, то Вы без труда сможете скачать бесплатно и без рекламы последние новинки кино, игр, сериалов и прочего у нас, на Rutor.in. Не нужно использовать прокси, чтобы зайти на рутор, достаточно воспользоваться нашим ресурсом. Все новые фильмы, игры, сериалы, книги и музыка за 2013 и 2014 годы через торрент бесплатно. Скачивайте фильмы в хорошем качестве, игры для пк, xbox, playstation без регистрации. У нас вы найдете новые Зарубежные сериалы и Русские сериалы 2013, 2014, 2015 годов. Оставайтесь с нами, качайте любимые фильмы, игры, сериалы, книги и музыку.