img image001 image001 image001 image001 image001 image001 image001 image001 image001 image001 image001 image001 image001 image001 image001

Planets Sun Sun Sun
Статистика раздачи
Автор: Nickolas3434 | Размер: 1.09 ГБ | Добавлен: 11 июн 2016
Раздают: 22    Качают: 5
Скачать торрент
Скачать торрент
Описание торрента

СообщениеДобавлено: 11 июн 2016 

Страна: СССР
Производство: Киностудия им. Горького
Жанр: приключения, военный
Год выпуска: 1957
Продолжительность: 01:29:08
Перевод: Не требуется
Cубтитры: нет
Оригинальная аудиодорожка: русский
Режиссер: Илья Фрэз
В ролях:
Олег Вишнев, Вова Семенович, Саша Чудаков, Слава Девкин, Жора Александров, Валерий Сафарбеков, Наталья Рычагова, Оля Троицкая, Саша Вдовин, Петро Дупак, Иван Свищ, Юрий Боголюбов, Леонид Харитонов, Сергей Блинников, Анатолий Кубацкий, Николай Яковченко, Елена Максимова, Николай Панасьев, Екатерина Литвиненко, Владимир Емельянов...
Полный список актёров
Описание:
Приключения, выпавшие на долю пионеров, оказавшихся во время войны на оккупированной немцами территории и начаыших борьбу с врагами. Фильм снят по одноименному роману — трилогии Валентины Осеевой «Васек Трубачев и его товарищи».





Источник: DVD5 R5
Качество видео: DVDRip
Формат видео: AVI
Видео: 688x512 (4:3), 25 fps, XviD ~ 1544 kbps avg, 0.175 bit/pixel
Аудио: 48 kHz, Dolby Digital AC3 2.0, 192 kbps
Раздача от:
Общее
Полное имя : Otryad.Trubacheva.srazhaetsya.1957.DVDRip_[New-team]_by_AVP_Studio.avi
Формат : AVI
Формат/Информация : Audio Video Interleave
Размер файла : 1,09 Гбайт
Продолжительность : 1 ч. 29 м.
Общий поток : 1746 Кбит/сек
Программа кодирования : VirtualDubMod 1.5.10.3 | www.virtualdub-fr.org || (build 2550/release)
Библиотека кодирования : VirtualDubMod build 2550/release
Видео
Идентификатор : 0
Формат : MPEG-4 Visual
Профиль формата : Advanced Simple@L5
Параметр BVOP формата : 1
Параметр QPel формата : Нет
Параметр GMC формата : Без точки перехода
Параметр матрицы формата : Выборочная
Идентификатор кодека : XVID
Идентификатор кодека/Подсказка : XviD
Продолжительность : 1 ч. 29 м.
Битрейт : 1544 Кбит/сек
Ширина : 688 пикселей
Высота : 512 пикселей
Соотношение сторон : 4:3
Частота кадров : 25,000 кадров/сек
Цветовое пространство : YUV
Субдискретизация насыщенности : 4:2:0
Битовая глубина : 8 бит
Тип развёртки : Прогрессивная
Метод сжатия : С потерями
Бит/(Пиксели*Кадры) : 0.175
Размер потока : 984 Мбайт (88%)
Библиотека кодирования : XviD 1.2.1 (UTC 2008-12-04)
Аудио
Идентификатор : 1
Формат : AC-3
Формат/Информация : Audio Coding 3
Расширение режима : CM (complete main)
Параметр Endianness формата : Big
Идентификатор кодека : 2000
Продолжительность : 1 ч. 29 м.
Вид битрейта : Постоянный
Битрейт : 192 Кбит/сек
Каналы : 2 канала
Расположение каналов : Front: L R
Частота : 48,0 КГц
Частота кадров : 31,250 кадров/сек (1536 spf)
Метод сжатия : С потерями
Размер потока : 122 Мбайт (11%)
Выравнивание : Разделение по промежуткам
Продолжительность промежутка : 40 мс. (1,00 видеокадр)
Время предзагрузки промежутка : 500 мс





   Похожие торренты   Торрент   Размер 
В этой теме нет новых непрочитанных сообщений. Отряд Трубачева сражается (1957) DVDRip-AVC от New-Team

23 | 4

1.09 ГБ

В этой теме нет новых непрочитанных сообщений. Отряд Трубачева сражается (1957) DVDRip от New-Team

9 | 5

744.37 МБ

В этой теме нет новых непрочитанных сообщений. Отряд Трубачева сражается (1957) DVDRip

305 | 602

1.37 ГБ

В этой теме нет новых непрочитанных сообщений. На графских развалинах (1957) DVDRip от New-Team

25 | 9

744.22 МБ

В этой теме нет новых непрочитанных сообщений. Девушка без адреса (1957) DVDRip от New-Team

126 | 14

1.45 ГБ

В этой теме нет новых непрочитанных сообщений. Девушка без адреса (1957) DVDRip от New-Team

330 | 29

742.99 МБ

В этой теме нет новых непрочитанных сообщений. На графских развалинах (1957) DVDRip от New-Team

16 | 44

743.95 МБ




Вы не можете начинать темы
Вы не можете отвечать на сообщения
Вы не можете редактировать свои сообщения
Вы не можете удалять свои сообщения
Вы не можете добавлять вложения

Перейти:  
Для Мосгорсуда, Роскомнадзора и рекламодателей: mosgorsud-torrent[собачка]yandex.ru
 Вход
ppkBB3cker v.2 © 2008-2014 @ PPK
[ Time : 0.017s | 18 Queries | GZIP : Off ]

Торрент трекер RUTOR.IN, Не можете зайти на rutor.org? Какой новый адрес рутор? Какое зеркало рутор? Не работает rutor.org и зеркала? Тогда наш торрент специально для вас. Rutor.in неофициальное зеркало rutor. В случае если у Вас заблокирован rutor или вдруг Вы не можете на него зайти, то Вы без труда сможете скачать бесплатно и без рекламы последние новинки кино, игр, сериалов и прочего у нас, на Rutor.in. Не нужно использовать прокси, чтобы зайти на рутор, достаточно воспользоваться нашим ресурсом. Все новые фильмы, игры, сериалы, книги и музыка за 2013 и 2014 годы через торрент бесплатно. Скачивайте фильмы в хорошем качестве, игры для пк, xbox, playstation без регистрации. У нас вы найдете новые Зарубежные сериалы и Русские сериалы 2013, 2014, 2015 годов. Оставайтесь с нами, качайте любимые фильмы, игры, сериалы, книги и музыку.
cron