img image001 image001 image001 image001 image001 image001 image001 image001 image001 image001 image001 image001 image001 image001 image001

Planets Sun Sun Sun
Статистика раздачи
Автор: Nickolas3434 | Размер: 745.05 МБ | Добавлен: 13 июн 2016
Раздают: 19    Качают: 1
Скачать торрент
Скачать торрент
Описание торрента

СообщениеДобавлено: 13 июн 2016 

Страна: СССР
Производство: Ленфильм
Жанр: приключения
Год выпуска: 1955
Продолжительность: 01:31:31
Перевод: Не требуется
Cубтитры: нет
Оригинальная аудиодорожка: русский
Режиссер: Владимир Венгеров
В ролях:
Александр Михайлов, Ольга Заботкина, Анатолий Адоскин, Евгений Лебедев, Борис Беляев, Людмила Безуглая, Борис Аракелов, Эдуард Кузнецов, Инна Кондратьева, Леонид Галлис, Бруно Фрейндлих, Татьяна Пельтцер, Елена Максимова, Нина Дробышева, Михаил Ладыгин...
Полный список актёров
Описание:
По одноименному роману В. Каверина.
С детских лет Саня Григорьев умел добиваться успеха в любом деле. Он вырос мужественным и храбрым человеком. Мечта разыскать остатки экспедиции капитана Татаринова привела его в ряды летчиков-полярников. Жизнь капитана Григорьева полна героических событий: он летал над Арктикой, сражался против фашистов. Его подстерегали опасности, приходилось терпеть временные поражения, но настойчивый и целеустремленный характер героя помогает ему сдержать клятву, данную себе еще в детстве: "Бороться и искать, найти и не сдаваться".





Источник: DVD9 R5
Качество видео: DVDRip
Формат видео: AVI
Видео: 576x432 (4:3), 25 fps, XviD ~ 1001 kbps avg, 0.161 bit/pixel
Аудио: 48 kHz, MP3 2.0, 128 kbps
Раздача от:
Общее
Полное имя : Dva.kapitana.1955.DVDRip-745_[New-team]_by_AVP_Studio.avi
Формат : AVI
Формат/Информация : Audio Video Interleave
Размер файла : 745 Мбайт
Продолжительность : 1 ч. 31 м.
Общий поток : 1138 Кбит/сек
Программа кодирования : VirtualDubMod 1.5.10.3 | www.virtualdub-fr.org || (build 2550/release)
Библиотека кодирования : VirtualDubMod build 2550/release
Видео
Идентификатор : 0
Формат : MPEG-4 Visual
Профиль формата : Advanced Simple@L5
Параметр BVOP формата : 1
Параметр QPel формата : Нет
Параметр GMC формата : Без точки перехода
Параметр матрицы формата : Выборочная
Идентификатор кодека : XVID
Идентификатор кодека/Подсказка : XviD
Продолжительность : 1 ч. 31 м.
Битрейт : 1001 Кбит/сек
Ширина : 576 пикселей
Высота : 432 пикселя
Соотношение сторон : 4:3
Частота кадров : 25,000 кадров/сек
Цветовое пространство : YUV
Субдискретизация насыщенности : 4:2:0
Битовая глубина : 8 бит
Тип развёртки : Прогрессивная
Метод сжатия : С потерями
Бит/(Пиксели*Кадры) : 0.161
Размер потока : 655 Мбайт (88%)
Библиотека кодирования : XviD 1.2.1 (UTC 2008-12-04)
Аудио
Идентификатор : 1
Формат : MPEG Audio
Версия формата : Version 1
Профиль формата : Layer 3
Идентификатор кодека : 55
Идентификатор кодека/Подсказка : MP3
Продолжительность : 1 ч. 31 м.
Вид битрейта : Постоянный
Битрейт : 128 Кбит/сек
Каналы : 2 канала
Частота : 48,0 КГц
Метод сжатия : С потерями
Размер потока : 83,8 Мбайт (11%)
Выравнивание : Соединение по промежуткам
Продолжительность промежутка : 40 мс. (1,00 видеокадр)
Время предзагрузки промежутка : 504 мс.
Библиотека кодирования : LAME3.99r
Настройки программы : -m s -V 4 -q 2 -lowpass 17 -b 128





   Похожие торренты   Торрент   Размер 
В этой теме нет новых непрочитанных сообщений. Два капитана (1955) DVDRip-AVC от New-Team

60 | 5

1.46 ГБ

В этой теме нет новых непрочитанных сообщений. Два капитана (1955) DVDRip от New-Team

24 | 1

1.46 ГБ

В этой теме нет новых непрочитанных сообщений. Два капитана (1955) DVDRip

323 | 11

1.37 ГБ

В этой теме нет новых непрочитанных сообщений. Дети капитана Гранта (1936) DVDRip от New-Team

330 | 20

743.2 МБ

В этой теме нет новых непрочитанных сообщений. Дети капитана Гранта (1936) DVDRip от New-Team

48 | 9

1.45 ГБ

В этой теме нет новых непрочитанных сообщений. Выйти замуж за капитана (1985) DVDRip от New-Team

62 | 7

1.46 ГБ

В этой теме нет новых непрочитанных сообщений. Выйти замуж за капитана (1985) DVDRip от New-Team

93 | 38

1.46 ГБ




Вы не можете начинать темы
Вы не можете отвечать на сообщения
Вы не можете редактировать свои сообщения
Вы не можете удалять свои сообщения
Вы не можете добавлять вложения

Перейти:  
Для Мосгорсуда, Роскомнадзора и рекламодателей: mosgorsud-torrent[собачка]yandex.ru
 Вход
ppkBB3cker v.2 © 2008-2014 @ PPK
[ Time : 0.055s | 15 Queries | GZIP : Off ]

Торрент трекер RUTOR.IN, Не можете зайти на rutor.org? Какой новый адрес рутор? Какое зеркало рутор? Не работает rutor.org и зеркала? Тогда наш торрент специально для вас. Rutor.in неофициальное зеркало rutor. В случае если у Вас заблокирован rutor или вдруг Вы не можете на него зайти, то Вы без труда сможете скачать бесплатно и без рекламы последние новинки кино, игр, сериалов и прочего у нас, на Rutor.in. Не нужно использовать прокси, чтобы зайти на рутор, достаточно воспользоваться нашим ресурсом. Все новые фильмы, игры, сериалы, книги и музыка за 2013 и 2014 годы через торрент бесплатно. Скачивайте фильмы в хорошем качестве, игры для пк, xbox, playstation без регистрации. У нас вы найдете новые Зарубежные сериалы и Русские сериалы 2013, 2014, 2015 годов. Оставайтесь с нами, качайте любимые фильмы, игры, сериалы, книги и музыку.