img image001 image001 image001 image001 image001 image001 image001 image001 image001 image001 image001 image001 image001 image001 image001

Planets Sun Sun Sun
Статистика раздачи
Автор: Nickolas3434 | Размер: 743.7 МБ | Добавлен: 13 июн 2016
Раздают: 10    Качают: 1
Скачать торрент
Скачать торрент
Описание торрента

СообщениеДобавлено: 13 июн 2016 


Информация о фильме
Название: 34-й скорый
Год выхода: 1981
Жанр: Катастрофа, драма
Режиссёр: Андрей Малюков
В ролях: Лев Дуров, Леонид Трутнев, Александр Рыщенков, Елена Майорова, Вячеслав Езепов, Альгимантас Масюлис, Ирина Печерникова, Валерий Рыжаков, Марина Шиманская, Александр Фатюшин, Олег Голубицкий , Петерис Гаудыньш, Александр Пятков, Зоя Василькова, Даниил Нетребин, Наталья Харахорина, Анатолий Веденкин, Валентина Клягина, Григорий Маликов
О фильме: Скорый поезд №34 "Москва-Элекмонар" отправился точно по расписанию. Пассажиры спокойно готовились ко сну, когда в опустевшем купе от непогашенной сигареты загорелась занавеска. Вскоре загорелся и весь вагон. Ужасная катастрофа зависла над всеми пассажирами мчащегося в ночь поезда...

Страна: СССР
Студия: Мосфильм
Продолжительность: 01:18:47
Перевод: Не требуется (оригинальный)
Файл
Формат: avi
Качество: DVDRip (DVD5)
Видео: XviD, 672х288, 25fps, 1182kbps
Аудио: MPEG Layer 3, 2ch, 48000Hz, 128kbps

General
Complete name : 34.Skoryi.1981.O.DVDRip.700.CurHaJI.avi
Format : AVI
Format/Info : Audio Video Interleave
File size : 744 MiB
Duration : 1h 18mn
Overall bit rate : 1 320 Kbps
Movie name : 34.Skoryi.1981.O.DVDRip.700.CurHaJI
Writing application : VirtualDubMod 1.5.10.3 | www.virtualdub-fr.org || (build 2550/release)
Writing library : VirtualDub build 35491/release
Video
ID : 0
Format : MPEG-4 Visual
Format profile : Advanced Simple@L5
Format settings, BVOP : 2
Format settings, QPel : No
Format settings, GMC : No warppoints
Format settings, Matrix : Custom
Codec ID : XVID
Codec ID/Hint : XviD
Duration : 1h 18mn
Bit rate : 1 182 Kbps
Width : 672 pixels
Height : 288 pixels
Display aspect ratio : 2.35:1
Frame rate : 25.000 fps
Color space : YUV
Chroma subsampling : 4:2:0
Bit depth : 8 bits
Scan type : Progressive
Compression mode : Lossy
Bits/(Pixel*Frame) : 0.244
Stream size : 666 MiB (90%)
Writing library : XviD 73
Audio
ID : 1
Format : MPEG Audio
Format version : Version 1
Format profile : Layer 3
Codec ID : 55
Codec ID/Hint : MP3
Duration : 1h 18mn
Bit rate mode : Constant
Bit rate : 128 Kbps
Channel(s) : 2 channels
Sampling rate : 48.0 KHz
Compression mode : Lossy
Stream size : 72.1 MiB (10%)
Alignment : Aligned on interleaves
Interleave, duration : 40 ms (1.00 video frame)
Interleave, preload duration : 504 ms
Writing library : LAME3.99r
Encoding settings : -m s -V 4 -q 2 -lowpass 17 -b 128


Релиз от:



   Похожие торренты   Торрент   Размер 
В этой теме нет новых непрочитанных сообщений. 34-й скорый (1981) DVDRip

269 | 19

1.09 ГБ

В этой теме нет новых непрочитанных сообщений. 34-й скорый (1981) SATRip

21 | 1

1.46 ГБ

В этой теме нет новых непрочитанных сообщений. Скорый поезд «Сансет-лимитед» / Скорый «Закат» / Ограниченный закат / Предельный закат / The Sunset Limited (2011) HDTVRip

0 | 3

743.09 МБ

В этой теме нет новых непрочитанных сообщений. Скорый «Москва-Россия» (2014) DVDRip от ivandubskoj

473 | 16

701.25 МБ

В этой теме нет новых непрочитанных сообщений. Скорый «Москва-Россия» (2014) DVDRip от MediaClub | КПК

159 | 13

382.07 МБ

В этой теме нет новых непрочитанных сообщений. Скорый Москва-Россия (2014) DVDRip от Freerutor | Лицензия

6044 | 77

1.37 ГБ

В этой теме нет новых непрочитанных сообщений. Скорый «Москва-Россия» (2014) TS

4889 | 167

1.37 ГБ




Вы не можете начинать темы
Вы не можете отвечать на сообщения
Вы не можете редактировать свои сообщения
Вы не можете удалять свои сообщения
Вы не можете добавлять вложения

Перейти:  
Для Мосгорсуда, Роскомнадзора и рекламодателей: mosgorsud-torrent[собачка]yandex.ru
 Вход
ppkBB3cker v.2 © 2008-2014 @ PPK
[ Time : 0.272s | 14 Queries | GZIP : Off ]

Торрент трекер RUTOR.IN, Не можете зайти на rutor.org? Какой новый адрес рутор? Какое зеркало рутор? Не работает rutor.org и зеркала? Тогда наш торрент специально для вас. Rutor.in неофициальное зеркало rutor. В случае если у Вас заблокирован rutor или вдруг Вы не можете на него зайти, то Вы без труда сможете скачать бесплатно и без рекламы последние новинки кино, игр, сериалов и прочего у нас, на Rutor.in. Не нужно использовать прокси, чтобы зайти на рутор, достаточно воспользоваться нашим ресурсом. Все новые фильмы, игры, сериалы, книги и музыка за 2013 и 2014 годы через торрент бесплатно. Скачивайте фильмы в хорошем качестве, игры для пк, xbox, playstation без регистрации. У нас вы найдете новые Зарубежные сериалы и Русские сериалы 2013, 2014, 2015 годов. Оставайтесь с нами, качайте любимые фильмы, игры, сериалы, книги и музыку.