img image001 image001 image001 image001 image001 image001 image001 image001 image001 image001 image001 image001 image001 image001 image001

Planets Sun Sun Sun
Статистика раздачи
Автор: Nickolas3434 | Размер: 2.38 ГБ | Добавлен: 13 июн 2016
Раздают: 33    Качают: 3
Скачать торрент
Скачать торрент
Описание торрента

СообщениеДобавлено: 13 июн 2016 


Информация о фильме
Название: Возвращение резидента
Год выхода: 1982
Жанр: Детектив
Режиссер: Вениамин Дорман
В ролях: Георгий Жжёнов, Элеонора Шашкова, Леонид Броневой, Пётр Вельяминов, Евгений Герасимов, Николай Граббе, Вадим Захарченко, Ирина (Ирен) Азер, Борис Химичев, Евгений Киндинов, Георгий Тейх, Юрий Гусев, Владимир Мащенко, Алексей Михайлов, Борис Иванов, Татьяна Окуневская, Николай Прокопович, Леонид Ярмольник, Ерванд Арзуманян, Екатерина Граббе, Григорий Лямпе, Любовь Соколова, Георгий Тусузов, Александр Филиппенко, Александр Яковлев, Михаил Петров
О фильме:
Серьёзнейшей проверке подвергают "хозяева" своего агента Тульева, побывавшего "в лапах" КГБ. Ему так и не удается до конца убедить их в своей преданности и действовать приходится зачастую с огромным риском. Но пока его "фильтруют", Тульев добывает ценные сведения...
Страна: СССР, Киностудия им. М. Горького
Продолжительность: 02:09:00
Перевод: не требуется
Файл
Кодек: x264
Качество: DVDRip-AVC
Видео: MPEG-4 AVC, 2000 Кбит/с, 700x354@751x354
Звук: AC3, 6 ch, 448 Кбит/с, АС3, 1 ch, 192 Кбит/с

x264 [info]: profile High, level 4.1
x264 [info]: frame I:40 Avg QP:16.22 size: 46574
x264 [info]: frame P:586 Avg QP:19.57 size: 19378
x264 [info]: frame B:1893 Avg QP:21.07 size: 6366
x264 [info]: consecutive B-frames: 2.8% 4.1% 10.1% 24.2% 22.3% 30.0% 4.4% 1.4% 0.5% 0.2%
=======================================================
Общее
Уникальный идентификатор : 205995879396395268187504984247781919916 (0x9AF95CFE476DD9CAAE7620BDD2C18CAC)
Полное имя : D:Возвращение резидента_1982-DVDRip-AVC.mkv
Формат : Matroska
Версия формата : Version 2
Размер файла : 2,38 Гбайт
Продолжительность : 2 ч. 9 м.
Общий поток : 2642 Кбит/сек
Дата кодирования : UTC 2016-06-10 13:34:21
Программа кодирования : mkvmerge v5.8.0 ('No Sleep / Pillow') built on Sep 2 2012 15:37:04
Библиотека кодирования : libebml v1.2.3 + libmatroska v1.3.0
Видео
Идентификатор : 1
Формат : AVC
Формат/Информация : Advanced Video Codec
Профиль формата : High@L4.1
Параметр CABAC формата : Да
Параметр ReFrames формата : 14 кадров
Идентификатор кодека : V_MPEG4/ISO/AVC
Продолжительность : 2 ч. 9 м.
Битрейт : 2000 Кбит/сек
Ширина : 700 пикселей
Высота : 354 пикселя
Соотношение сторон : 2,121
Соотношение сторон в оригинале : 2,124
Режим частоты кадров : Постоянный
Частота кадров : 25,000 кадров/сек
Цветовое пространство : YUV
Субдискретизация насыщенности : 4:2:0
Битовая глубина : 8 бит
Тип развёртки : Прогрессивная
Бит/(Пиксели*Кадры) : 0.323
Размер потока : 1,76 Гбайт (74%)
Библиотека кодирования : x264 core 148 r2638 7599210
Настройки программы : cabac=1 / ref=14 / deblock=1:-2:-2 / analyse=0x3:0x133 / me=umh / subme=10 / psy=1 / psy_rd=1.00:0.10 / mixed_ref=1 / me_range=32 / chroma_me=1 / trellis=2 / 8x8dct=1 / cqm=0 / deadzone=21,11 / fast_pskip=0 / chroma_qp_offset=-3 / threads=11 / lookahead_threads=1 / sliced_threads=0 / nr=0 / decimate=0 / interlaced=0 / bluray_compat=0 / constrained_intra=0 / bframes=9 / b_pyramid=2 / b_adapt=2 / b_bias=0 / direct=3 / weightb=1 / open_gop=0 / weightp=2 / keyint=250 / keyint_min=25 / scenecut=40 / intra_refresh=0 / rc=2pass / mbtree=0 / bitrate=2000 / ratetol=1.0 / qcomp=0.63 / qpmin=0 / qpmax=39 / qpstep=4 / cplxblur=20.0 / qblur=0.5 / ip_ratio=1.35 / pb_ratio=1.30 / aq=2:0.90
Язык : English
Default : Да
Forced : Нет
Цветовой диапазон : Limited
Основные цвета : BT.601 PAL
Характеристики трансфера : BT.470 System B, BT.470 System G
Коэффициенты матрицы : BT.601
Аудио #1
Идентификатор : 2
Формат : AC-3
Формат/Информация : Audio Coding 3
Расширение режима : CM (complete main)
Параметр Endianness формата : Big
Идентификатор кодека : A_AC3
Продолжительность : 2 ч. 9 м.
Вид битрейта : Постоянный
Битрейт : 448 Кбит/сек
Каналы : 6 каналов
Расположение каналов : Front: L C R, Side: L R, LFE
Частота : 48,0 КГц
Метод сжатия : С потерями
Размер потока : 413 Мбайт (17%)
Язык : Russian
Default : Да
Forced : Нет
Аудио #2
Идентификатор : 3
Формат : AC-3
Формат/Информация : Audio Coding 3
Расширение режима : CM (complete main)
Параметр Endianness формата : Big
Идентификатор кодека : A_AC3
Продолжительность : 2 ч. 9 м.
Вид битрейта : Постоянный
Битрейт : 192 Кбит/сек
Каналы : 1 канал
Расположение каналов : Front: C
Частота : 48,0 КГц
Метод сжатия : С потерями
Размер потока : 177 Мбайт (7%)
Язык : Russian
Default : Нет
Forced : Нет

Релиз от:
Автор релиза:



   Похожие торренты   Торрент   Размер 
В этой теме нет новых непрочитанных сообщений. Ошибка резидента, Судьба резидента, Возвращение резидента, Конец операции «Резидент» (1968-1986) DVDRip

1203 | 91

8.2 ГБ

В этой теме нет новых непрочитанных сообщений. Возвращение резидента (1982) DVDRip

125 | 5

832.87 МБ

В этой теме нет новых непрочитанных сообщений. Ошибка резидента, Судьба резидента, Возвращение резидента, Конец операции «Резидент» (1968-1986) 4 х DVD9

54 | 45

29.39 ГБ

В этой теме нет новых непрочитанных сообщений. Возвращение солдата / The Return of the Soldier (1982) DVDRip от egoleshik | P, A

55 | 14

1.48 ГБ

В этой теме нет новых непрочитанных сообщений. Ошибка резидента (1968) DVDRip

204 | 14

1.37 ГБ

В этой теме нет новых непрочитанных сообщений. Возвращение шпионов / I Spy returns (1994) DVDRip от ExKinoRay

3 | 4

1.3 ГБ

В этой теме нет новых непрочитанных сообщений. Крэнфорд: Возвращение / Cranford [01-02 из 02] (2009) DVDRip от ExKinoRay

1 | 3

2.73 ГБ




Вы не можете начинать темы
Вы не можете отвечать на сообщения
Вы не можете редактировать свои сообщения
Вы не можете удалять свои сообщения
Вы не можете добавлять вложения

Перейти:  
Для Мосгорсуда, Роскомнадзора и рекламодателей: mosgorsud-torrent[собачка]yandex.ru
 Вход
ppkBB3cker v.2 © 2008-2014 @ PPK
[ Time : 0.027s | 14 Queries | GZIP : On ]

Торрент трекер RUTOR.IN, Не можете зайти на rutor.org? Какой новый адрес рутор? Какое зеркало рутор? Не работает rutor.org и зеркала? Тогда наш торрент специально для вас. Rutor.in неофициальное зеркало rutor. В случае если у Вас заблокирован rutor или вдруг Вы не можете на него зайти, то Вы без труда сможете скачать бесплатно и без рекламы последние новинки кино, игр, сериалов и прочего у нас, на Rutor.in. Не нужно использовать прокси, чтобы зайти на рутор, достаточно воспользоваться нашим ресурсом. Все новые фильмы, игры, сериалы, книги и музыка за 2013 и 2014 годы через торрент бесплатно. Скачивайте фильмы в хорошем качестве, игры для пк, xbox, playstation без регистрации. У нас вы найдете новые Зарубежные сериалы и Русские сериалы 2013, 2014, 2015 годов. Оставайтесь с нами, качайте любимые фильмы, игры, сериалы, книги и музыку.