img image001 image001 image001 image001 image001 image001 image001 image001 image001 image001 image001 image001 image001 image001 image001

Planets Sun Sun Sun
Статистика раздачи
Автор: Nickolas3434 | Размер: 2.79 ГБ | Добавлен: 13 июн 2016
Раздают: 37    Качают: 5
Скачать торрент
Скачать торрент
Описание торрента

СообщениеДобавлено: 13 июн 2016 


Информация о фильме
Название: Конец операции "Резидент"
Год выхода: 1986
Жанр: Детектив
Режиссер: Вениамин Дорман
В ролях: Георгий Жжёнов, Пётр Вельяминов, Николай Прокопович, Евгений Герасимов, Леонид Броневой, Ирина (Ирен) Азер, Евгений Киндинов, Александр Граве, Николай Бриллинг, Борис Химичев, Николай Засухин, Нина Меньшикова, Борис Иванов (II), Татьяна Окуневская, Юлия Жжёнова, Ирина Розанова, Андрей Харитонов, Леонид Ярмольник, Раиса Рязанова, Вадим Андреев, Леонардас Зельчюс, Вацлав Дворжецкий, Борис Клюев, Хейно Мандри, Алексей Миронов, Виктор Незнанов, Александр Савченко
О фильме:
Перед тем, как операция «Резидент», длившаяся 15 лет, окончательно завершится в пользу СССР, империалисты решаются на рискованный ход: посылают матерого диверсанта Брокмана убить изобретателя сверхсекретного противоракетного оружия Нестерова.
Страна: СССР, Киностудия им. М. Горького
Продолжительность: 02:16:39
Перевод: не требуется
Файл
Кодек: x264
Качество: DVDRip-AVC
Видео: MPEG-4 AVC, 2350 Кбит/с, 706x370@753x370
Звук: AC3, 2 ch, 384 Кбит/с, АС3, 1 ch, 192 Кбит/с

raw [info]: 706x370p 16:15 @ 25/1 fps (cfr)
x264 [info]: using SAR=16/15
x264 [info]: using cpu capabilities: MMX2 SSE2Fast SSSE3 SSE4.2 AVX
x264 [info]: profile High, level 4.1
x264 [info]: frame I:1057 Avg QP:15.10 size: 61213
x264 [info]: frame P:52905 Avg QP:18.84 size: 24503
x264 [info]: frame B:151006 Avg QP:20.82 size: 6935
====================================================
Общее
Уникальный идентификатор : 232788882224863342025216603564680726401 (0xAF218205B779133CBC86A2636364C781)
Полное имя : D:Конец операции Резидент_1986-DVDRip-AVC.mkv
Формат : Matroska
Версия формата : Version 2
Размер файла : 2,79 Гбайт
Продолжительность : 2 ч. 16 м.
Общий поток : 2928 Кбит/сек
Дата кодирования : UTC 2016-06-11 17:18:49
Программа кодирования : mkvmerge v5.8.0 ('No Sleep / Pillow') built on Sep 2 2012 15:37:04
Библиотека кодирования : libebml v1.2.3 + libmatroska v1.3.0
Видео
Идентификатор : 1
Формат : AVC
Формат/Информация : Advanced Video Codec
Профиль формата : High@L4.1
Параметр CABAC формата : Да
Параметр ReFrames формата : 15 кадров
Идентификатор кодека : V_MPEG4/ISO/AVC
Продолжительность : 2 ч. 16 м.
Битрейт : 2350 Кбит/сек
Ширина : 706 пикселей
Высота : 370 пикселей
Соотношение сторон : 2,035
Режим частоты кадров : Постоянный
Частота кадров : 25,000 кадров/сек
Цветовое пространство : YUV
Субдискретизация насыщенности : 4:2:0
Битовая глубина : 8 бит
Тип развёртки : Прогрессивная
Бит/(Пиксели*Кадры) : 0.360
Размер потока : 2,19 Гбайт (78%)
Библиотека кодирования : x264 core 148 r2638 7599210
Настройки программы : cabac=1 / ref=15 / deblock=1:-2:-2 / analyse=0x3:0x133 / me=umh / subme=10 / psy=1 / psy_rd=1.05:0.12 / mixed_ref=1 / me_range=32 / chroma_me=1 / trellis=2 / 8x8dct=1 / cqm=0 / deadzone=21,11 / fast_pskip=0 / chroma_qp_offset=-3 / threads=12 / lookahead_threads=2 / sliced_threads=0 / nr=0 / decimate=0 / interlaced=0 / bluray_compat=0 / constrained_intra=0 / bframes=10 / b_pyramid=2 / b_adapt=2 / b_bias=0 / direct=3 / weightb=1 / open_gop=0 / weightp=2 / keyint=250 / keyint_min=25 / scenecut=40 / intra_refresh=0 / rc=2pass / mbtree=0 / bitrate=2350 / ratetol=1.0 / qcomp=0.63 / qpmin=0 / qpmax=39 / qpstep=4 / cplxblur=20.0 / qblur=0.5 / ip_ratio=1.40 / pb_ratio=1.30 / aq=1:1.00
Язык : English
Default : Да
Forced : Нет
Цветовой диапазон : Limited
Основные цвета : BT.601 PAL
Характеристики трансфера : BT.470 System B, BT.470 System G
Коэффициенты матрицы : BT.601
Аудио #1
Идентификатор : 2
Формат : AC-3
Формат/Информация : Audio Coding 3
Расширение режима : CM (complete main)
Параметр Endianness формата : Big
Идентификатор кодека : A_AC3
Продолжительность : 2 ч. 16 м.
Вид битрейта : Постоянный
Битрейт : 384 Кбит/сек
Каналы : 2 канала
Расположение каналов : Front: L R
Частота : 48,0 КГц
Метод сжатия : С потерями
Размер потока : 375 Мбайт (13%)
Язык : Russian
Default : Да
Forced : Нет
Аудио #2
Идентификатор : 3
Формат : AC-3
Формат/Информация : Audio Coding 3
Расширение режима : CM (complete main)
Параметр Endianness формата : Big
Идентификатор кодека : A_AC3
Продолжительность : 2 ч. 16 м.
Вид битрейта : Постоянный
Битрейт : 192 Кбит/сек
Каналы : 1 канал
Расположение каналов : Front: C
Частота : 48,0 КГц
Метод сжатия : С потерями
Размер потока : 188 Мбайт (7%)
Язык : Russian
Default : Нет
Forced : Нет

Релиз от:
Автор релиза:



   Похожие торренты   Торрент   Размер 
В этой теме нет новых непрочитанных сообщений. Конец операции "Резидент" (1986) DVDRip

0 | 5

884.86 МБ

В этой теме нет новых непрочитанных сообщений. Ошибка резидента, Судьба резидента, Возвращение резидента, Конец операции «Резидент» (1968-1986) DVDRip

1203 | 91

8.2 ГБ

В этой теме нет новых непрочитанных сообщений. Ошибка резидента, Судьба резидента, Возвращение резидента, Конец операции «Резидент» (1968-1986) 4 х DVD9

54 | 45

29.39 ГБ

В этой теме нет новых непрочитанных сообщений. Счастливый конец (2009) DVDRip-AVC от ExKinoRay

33 | 3

2.05 ГБ

В этой теме нет новых непрочитанных сообщений. Горец 4: Конец игры / Highlander: Endgame (2000) DVDRip от ExKinoRay

14 | 8

1.59 ГБ

В этой теме нет новых непрочитанных сообщений. Счастливый конец / Stastny konec / Happy End (1966) DVDRip от ExKinoRay

4 | 1

703.79 МБ

В этой теме нет новых непрочитанных сообщений. Конец каникул - Памяти Виктора Цоя (1986) CAMRip

18 | 4

543.48 МБ




Вы не можете начинать темы
Вы не можете отвечать на сообщения
Вы не можете редактировать свои сообщения
Вы не можете удалять свои сообщения
Вы не можете добавлять вложения

Перейти:  
Для Мосгорсуда, Роскомнадзора и рекламодателей: mosgorsud-torrent[собачка]yandex.ru
 Вход
ppkBB3cker v.2 © 2008-2014 @ PPK
[ Time : 0.040s | 15 Queries | GZIP : Off ]

Торрент трекер RUTOR.IN, Не можете зайти на rutor.org? Какой новый адрес рутор? Какое зеркало рутор? Не работает rutor.org и зеркала? Тогда наш торрент специально для вас. Rutor.in неофициальное зеркало rutor. В случае если у Вас заблокирован rutor или вдруг Вы не можете на него зайти, то Вы без труда сможете скачать бесплатно и без рекламы последние новинки кино, игр, сериалов и прочего у нас, на Rutor.in. Не нужно использовать прокси, чтобы зайти на рутор, достаточно воспользоваться нашим ресурсом. Все новые фильмы, игры, сериалы, книги и музыка за 2013 и 2014 годы через торрент бесплатно. Скачивайте фильмы в хорошем качестве, игры для пк, xbox, playstation без регистрации. У нас вы найдете новые Зарубежные сериалы и Русские сериалы 2013, 2014, 2015 годов. Оставайтесь с нами, качайте любимые фильмы, игры, сериалы, книги и музыку.
cron