img image001 image001 image001 image001 image001 image001 image001 image001 image001 image001 image001 image001 image001 image001 image001

Planets Sun Sun Sun
Статистика раздачи
Автор: Nickolas3434 | Размер: 745.76 МБ | Добавлен: 17 июн 2016
Раздают: 9    Качают: 5
Скачать торрент
Скачать торрент
Описание торрента

СообщениеДобавлено: 17 июн 2016 

Страна: СССР
Производство: Ленфильм
Жанр: драма, история, биография
Год выпуска: 1955
Продолжительность: 01:38:54
Перевод: Не требуется
Cубтитры: нет
Оригинальная аудиодорожка: русский
Режиссер: Александр Иванов
В ролях:
Борис Ливанов, Аста Виханди, Антс Эскола, Герман Хованов, Янис Осис, Владимир Сошальский, Алексей Консовский, Альфред Ребане, Владимир Белокуров...
Полный список актёров
Описание:
«Ломоносов обнял все отрасли просвещения. Жажда науки была сильнейшей страстью сей души, исполненной страстей. Историк, ритор, механик, химик, минералог, художник и стихотворец он все испытал и все проник».
Этими словами А. С. Пушкина начинается фильм о крестьянском сыне Михаиле Васильевиче Ломоносове — отце русской науки, достигшем два века назад вершин мировой культуры и во многом опередившем современную ему науку на целые столетия.
Фильм раскрывает наиболее значительные страницы из жизни великого русского ученого, начиная с 1741 года, когда Михаил Васильевич возвратился в Петербург из заграничной поездки, и кончая 1755 голом — годом основания Ломоносовым Московского университета.
Перед зрителем оживает Россия после петровских реформ, всколыхнувших старинный уклад русского государства и вместе с тем наводнивших страну иноземными проходимцами, которые посыпались в Россию, как сор из дырявого мешка. В петербургской Академии наук, куда возвратился Ломоносов, все дела вершила засевшая в ней группа немецких лжеученых во главе о Шумахером и с Таубертом. С ними в борьбу за честь русской науки вступает ученый.
Ломоносов был не только выдающимся ученым, но и замечательным поэтом. Императрица Елизавета и ее приближенные не понимали значения научных работ Ломоносова, однако им нравились его звучные оды. Успех Ломоносова при дворе как поэта помог ему осуществить заветную мечту — построить первую в России научную химическую лабораторию. Интересы Родины и интересы развития ее науки и культуры были для Ломоносова неразделимы, отсюда единство теории и живой практики во “всей его многогранной деятельности: в одной и той же химической лаборатории он открывал великий закон сохранения материи и энергии и опробовал образцы руд для отечественной промышленности.
Но как бы гениально не был одарен Ломоносов, ученый понимал, что он один всего не сделает. Настал момент, когда Ломоносов ощутил необходимость позаботиться о будущем русской науки и культуры, расцвет которых он видел в просвещении народных масс, в подготовке ученых из среды русского народа. Великий ученый ясно сознавал: если он добьется основания народного университета, дело его жизни будет упрочено. Это понимали и многочисленные в враги Ломоносова, от санкт-петербургского архиепископа до Тауберта, который заявил: «Разве нам десять Ломоносовых надобно — и один нам в тягость!». Они отлично знали, что ученый хлопочет не только об открытии университета, но и о свободном доступе в него людей из простых сословий.
Борьба за создание такого университета завершилась победой пламенного патриота: в 1755 году в Москве был открыт Университет, основанный Михаилом Васильевичем Ломоносовым — великим сыном русского народа, высоко поднявшим знамя передовой отечественной науки.





Источник: DVD5 R5
Качество видео: DVDRip
Формат видео: AVI
Видео: 576x432 (4:3), 25 fps, XviD ~ 916 kbps avg, 0.147 bit/pixel
Аудио: 48 kHz, MP3 2.0, 128 kbps
Раздача от:
Общее
Полное имя : Mihaylo.Lomonosov.1955.DVDRip-745_[New-team]_by_AVP_Studio.avi
Формат : AVI
Формат/Информация : Audio Video Interleave
Размер файла : 746 Мбайт
Продолжительность : 1 ч. 38 м.
Общий поток : 1054 Кбит/сек
Программа кодирования : VirtualDubMod 1.5.10.3 | www.virtualdub-fr.org || (build 2550/release)
Библиотека кодирования : VirtualDubMod build 2550/release
Видео
Идентификатор : 0
Формат : MPEG-4 Visual
Профиль формата : Advanced Simple@L5
Параметр BVOP формата : 1
Параметр QPel формата : Нет
Параметр GMC формата : Без точки перехода
Параметр матрицы формата : Выборочная
Идентификатор кодека : XVID
Идентификатор кодека/Подсказка : XviD
Продолжительность : 1 ч. 38 м.
Битрейт : 916 Кбит/сек
Ширина : 576 пикселей
Высота : 432 пикселя
Соотношение сторон : 4:3
Частота кадров : 25,000 кадров/сек
Цветовое пространство : YUV
Субдискретизация насыщенности : 4:2:0
Битовая глубина : 8 бит
Тип развёртки : Прогрессивная
Метод сжатия : С потерями
Бит/(Пиксели*Кадры) : 0.147
Размер потока : 648 Мбайт (87%)
Библиотека кодирования : XviD 1.2.1 (UTC 2008-12-04)
Аудио
Идентификатор : 1
Формат : MPEG Audio
Версия формата : Version 1
Профиль формата : Layer 3
Идентификатор кодека : 55
Идентификатор кодека/Подсказка : MP3
Продолжительность : 1 ч. 38 м.
Вид битрейта : Постоянный
Битрейт : 128 Кбит/сек
Каналы : 2 канала
Частота : 48,0 КГц
Метод сжатия : С потерями
Размер потока : 90,5 Мбайт (12%)
Выравнивание : Соединение по промежуткам
Продолжительность промежутка : 40 мс. (1,00 видеокадр)
Время предзагрузки промежутка : 504 мс.
Библиотека кодирования : LAME3.99r
Настройки программы : -m s -V 4 -q 2 -lowpass 17 -b 128





   Похожие торренты   Торрент   Размер 
В этой теме нет новых непрочитанных сообщений. Михайло Ломоносов (1955) DVDRip от New-Team

27 | 5

1.46 ГБ

В этой теме нет новых непрочитанных сообщений. Михайло Ломоносов (1955) DVDRip-AVC от New-Team

40 | 3

1.46 ГБ

В этой теме нет новых непрочитанных сообщений. Михайло Ломоносов (1955) DVDRip от Generalfilm

12 | 7

1.46 ГБ

В этой теме нет новых непрочитанных сообщений. Михайло Ломоносов [01 -09 из 09] (1984-1986) DVDRip

727 | 92

7.92 ГБ

В этой теме нет новых непрочитанных сообщений. Михайло Ломоносов [01 -09 из 09] (1984-1986) DVDRip-AVC от ExKinoRay

168 | 39

10.28 ГБ

В этой теме нет новых непрочитанных сообщений. Михайло Ломоносов. Десять новелл из жизни гения (2011) SATRip от RiperAM

25 | 2

573.13 МБ

В этой теме нет новых непрочитанных сообщений. Попрыгунья (1955) DVDRip-AVC от New-Team

22 | 3

1.09 ГБ




Вы не можете начинать темы
Вы не можете отвечать на сообщения
Вы не можете редактировать свои сообщения
Вы не можете удалять свои сообщения
Вы не можете добавлять вложения

Перейти:  
Для Мосгорсуда, Роскомнадзора и рекламодателей: mosgorsud-torrent[собачка]yandex.ru
 Вход
ppkBB3cker v.2 © 2008-2014 @ PPK
[ Time : 0.023s | 16 Queries | GZIP : Off ]

Торрент трекер RUTOR.IN, Не можете зайти на rutor.org? Какой новый адрес рутор? Какое зеркало рутор? Не работает rutor.org и зеркала? Тогда наш торрент специально для вас. Rutor.in неофициальное зеркало rutor. В случае если у Вас заблокирован rutor или вдруг Вы не можете на него зайти, то Вы без труда сможете скачать бесплатно и без рекламы последние новинки кино, игр, сериалов и прочего у нас, на Rutor.in. Не нужно использовать прокси, чтобы зайти на рутор, достаточно воспользоваться нашим ресурсом. Все новые фильмы, игры, сериалы, книги и музыка за 2013 и 2014 годы через торрент бесплатно. Скачивайте фильмы в хорошем качестве, игры для пк, xbox, playstation без регистрации. У нас вы найдете новые Зарубежные сериалы и Русские сериалы 2013, 2014, 2015 годов. Оставайтесь с нами, качайте любимые фильмы, игры, сериалы, книги и музыку.