img image001 image001 image001 image001 image001 image001 image001 image001 image001 image001 image001 image001 image001 image001 image001

Planets Sun Sun Sun
Статистика раздачи
Автор: Nickolas3434 | Размер: 744.46 МБ | Добавлен: 17 июн 2016
Раздают: 43    Качают: 2
Скачать торрент
Скачать торрент
Описание торрента

СообщениеДобавлено: 17 июн 2016 


Информация о фильме
Название: Перед рассветом
Год выхода: 1989
Жанр: Боевик, драма
Режиссер: Ярополк Лапшин
В ролях: Валерий Рыжаков, Евгений Миронов, Александр Панкратов-Чёрный, Раиса Рязанова, Константин Степанков, Вера Альховская, Николай Бадьев, Олег Корчиков, Вячеслав Кириличев, Игорь Головин
О фильме:
Жаркое лето 1941 года. Небольшая станция в прифронтовой полосе. В один из вагонов погружают группу уголовников. Не успевает поезд проехать и несколько километров, как подвергается налету авиации и атаке десанта. После боя из всего состава в живых остаются только трое: молодой лейтенант НКВД, «вор в законе» и репрессированный партийный работник. Они бегут в лес, подальше от разбитого поезда и преследующих их немцев. В такой ситуации заключенные, казалось, могли бы считать себя свободными, но лейтенант думает иначе и намерен доставить их к месту назначения. Дальнейшая история в фильме повествует о том, что, кем бы они ни были — уголовником, репрессированным или офицером-чекистом, — их объединило одно — ненависть к захватчикам.

Страна: СССР
Студия: Свердловская киностудия
Продолжительность: 01:19:37
Перевод: Не требуется
Файл
Кодек: XviD
Качество: HDTVRip
Видео: 576x432 (1.33:1), 25 fps, XviD build 73 ~1169 kbps avg, 0.19 bit/pixel
Звук: 48 kHz, MPEG Layer 3, 2 ch, ~128.00 kbps avg
Субтитры: Отсутствуют
Семпл
General
Complete name : D:Изготовление рипаPered_rassvetom_1989_HDTVRip_by_shkiper.avi
Format : AVI
Format/Info : Audio Video Interleave
File size : 744 MiB
Duration : 1h 19mn
Overall bit rate : 1 307 Kbps
Writing application : VirtualDubMod 1.5.10.3 | www.virtualdub-fr.org || (build 2550/release)
Writing library : VirtualDubMod build 2550/release
Video
ID : 0
Format : MPEG-4 Visual
Format profile : Advanced Simple@L5
Format settings, BVOP : 1
Format settings, QPel : No
Format settings, GMC : No warppoints
Format settings, Matrix : Custom
Codec ID : XVID
Codec ID/Hint : XviD
Duration : 1h 19mn
Bit rate : 1 170 Kbps
Width : 576 pixels
Height : 432 pixels
Display aspect ratio : 4:3
Frame rate : 25.000 fps
Color space : YUV
Chroma subsampling : 4:2:0
Bit depth : 8 bits
Scan type : Progressive
Compression mode : Lossy
Bits/(Pixel*Frame) : 0.188
Stream size : 666 MiB (89%)
Writing library : XviD 73
Audio
ID : 1
Format : MPEG Audio
Format version : Version 1
Format profile : Layer 3
Codec ID : 55
Codec ID/Hint : MP3
Duration : 1h 19mn
Bit rate mode : Constant
Bit rate : 128 Kbps
Channel(s) : 2 channels
Sampling rate : 48.0 KHz
Compression mode : Lossy
Stream size : 72.9 MiB (10%)
Alignment : Aligned on interleaves
Interleave, duration : 40 ms (1.00 video frame)
Interleave, preload duratio : 504 ms
Writing library : LAME3.99r
Encoding settings : -m s -V 4 -q 2 -lowpass 17 -b 128

Релиз от:



   Похожие торренты   Торрент   Размер 
В этой теме нет новых непрочитанных сообщений. Перед рассветом (1989) HDTVRip

107 | 5

1.37 ГБ

В этой теме нет новых непрочитанных сообщений. Перед рассветом (1989) HDTVRip-AVC от ExKinoRay

42 | 11

1.78 ГБ

В этой теме нет новых непрочитанных сообщений. Перед рассветом (1989) HDTVRip 720p

121 | 7

2.61 ГБ

В этой теме нет новых непрочитанных сообщений. Перед рассветом (1989) DVDRip

98 | 13

1.37 ГБ

В этой теме нет новых непрочитанных сообщений. Перед рассветом (1989) TVRip

234 | 11

1.75 ГБ

В этой теме нет новых непрочитанных сообщений. Перед рассветом (1989) DVDRip от New-Team

139 | 16

744.43 МБ

В этой теме нет новых непрочитанных сообщений. Перед рассветом (1989) DVDRip-AVC от New-Team

103 | 10

1.09 ГБ




Вы не можете начинать темы
Вы не можете отвечать на сообщения
Вы не можете редактировать свои сообщения
Вы не можете удалять свои сообщения
Вы не можете добавлять вложения

Перейти:  
Для Мосгорсуда, Роскомнадзора и рекламодателей: mosgorsud-torrent[собачка]yandex.ru
 Вход
ppkBB3cker v.2 © 2008-2014 @ PPK
[ Time : 0.031s | 14 Queries | GZIP : Off ]

Торрент трекер RUTOR.IN, Не можете зайти на rutor.org? Какой новый адрес рутор? Какое зеркало рутор? Не работает rutor.org и зеркала? Тогда наш торрент специально для вас. Rutor.in неофициальное зеркало rutor. В случае если у Вас заблокирован rutor или вдруг Вы не можете на него зайти, то Вы без труда сможете скачать бесплатно и без рекламы последние новинки кино, игр, сериалов и прочего у нас, на Rutor.in. Не нужно использовать прокси, чтобы зайти на рутор, достаточно воспользоваться нашим ресурсом. Все новые фильмы, игры, сериалы, книги и музыка за 2013 и 2014 годы через торрент бесплатно. Скачивайте фильмы в хорошем качестве, игры для пк, xbox, playstation без регистрации. У нас вы найдете новые Зарубежные сериалы и Русские сериалы 2013, 2014, 2015 годов. Оставайтесь с нами, качайте любимые фильмы, игры, сериалы, книги и музыку.