img image001 image001 image001 image001 image001 image001 image001 image001 image001 image001 image001 image001 image001 image001 image001

Planets Sun Sun Sun
Статистика раздачи
Автор: Nickolas3434 | Размер: 1.46 ГБ | Добавлен: 17 июн 2016
Раздают: 14    Качают: 4
Скачать торрент
Скачать торрент
Описание торрента

СообщениеДобавлено: 17 июн 2016 

Страна: СССР
Производство: Киевская киностудия
Жанр: драма, биография
Год выпуска: 1955
Продолжительность: 01:44:26
Перевод: Не требуется
Cубтитры: нет
Оригинальная аудиодорожка: русский
Режиссер: Алексей Маслюков, Мечислава Маевская
В ролях:
Владимир Емельянов, Михаил Покотило, Елена Лицканович, Нина Крачковская, Константин Михайлов, Павел Кадочников, Георгий Юматов, Юрий Саранцев, Юлиан Панич, Павел Грубник, Яша Паничев, А. Чистик, Миша Чернов, Валерий Зиновьев (II), Александр Суснин, В. Амелин, Евгений Зиновьев, Костя Евгеньев, Иван Поплавец, Лемар Бурыкин, Ролан Быков, Владимир Борискин...
Полный список актёров
Описание:
По одноименному роману А. С. Макаренко.
В 1920 году в селе Ракитном под Полтавой была создана первая колония для беспризорных детей. О работе учителей с непокорными и неподдающимися детьми улиц рассказывает этот фильм. Предстояло перевоспитать очень трудных подростков, приобщить их к труду, вырастить честных граждан. Немало придется пережить Антону Семеновичу Макаренко, прежде чем он найдет поход к ребятам.





Источник: DVD9 R5
Качество видео: DVDRip
Формат видео: AVI
Видео: 688x512 (4:3), 25 fps, XviD ~ 1798 kbps avg, 0.204 bit/pixel
Аудио: 48 kHz, Dolby Digital AC3 2.0, 192 kbps
Раздача от:
Общее
Полное имя : Pedagogicheskaya. poyema.1955.DVDRip_[New-team]_by_AVP_Studio.avi
Формат : AVI
Формат/Информация : Audio Video Interleave
Размер файла : 1,46 Гбайт
Продолжительность : 1 ч. 44 м.
Общий поток : 1999 Кбит/сек
Программа кодирования : VirtualDubMod 1.5.10.3 | www.virtualdub-fr.org || (build 2550/release)
Библиотека кодирования : VirtualDubMod build 2550/release
Видео
Идентификатор : 0
Формат : MPEG-4 Visual
Профиль формата : Advanced Simple@L5
Параметр BVOP формата : 1
Параметр QPel формата : Нет
Параметр GMC формата : Без точки перехода
Параметр матрицы формата : Выборочная
Идентификатор кодека : XVID
Идентификатор кодека/Подсказка : XviD
Продолжительность : 1 ч. 44 м.
Битрейт : 1798 Кбит/сек
Ширина : 688 пикселей
Высота : 512 пикселей
Соотношение сторон : 4:3
Частота кадров : 25,000 кадров/сек
Цветовое пространство : YUV
Субдискретизация насыщенности : 4:2:0
Битовая глубина : 8 бит
Тип развёртки : Прогрессивная
Метод сжатия : С потерями
Бит/(Пиксели*Кадры) : 0.204
Размер потока : 1,31 Гбайт (90%)
Библиотека кодирования : XviD 1.2.1 (UTC 2008-12-04)
Аудио
Идентификатор : 1
Формат : AC-3
Формат/Информация : Audio Coding 3
Расширение режима : CM (complete main)
Параметр Endianness формата : Big
Идентификатор кодека : 2000
Продолжительность : 1 ч. 44 м.
Вид битрейта : Постоянный
Битрейт : 192 Кбит/сек
Каналы : 2 канала
Расположение каналов : Front: L R
Частота : 48,0 КГц
Частота кадров : 31,250 кадров/сек (1536 spf)
Метод сжатия : С потерями
Размер потока : 143 Мбайт (10%)
Выравнивание : Разделение по промежуткам
Продолжительность промежутка : 40 мс. (1,00 видеокадр)
Время предзагрузки промежутка : 500 мс





   Похожие торренты   Торрент   Размер 
В этой теме нет новых непрочитанных сообщений. Педагогическая поэма (1955) DVDRip от New-Team

21 | 5

745.6 МБ

В этой теме нет новых непрочитанных сообщений. Педагогическая поэма (1955) DVDRip-AVC от New-Team

70 | 4

1.46 ГБ

В этой теме нет новых непрочитанных сообщений. Педагогическая поэма (1955) DVDRip от ExKinoRay

53 | 15

1.46 ГБ

В этой теме нет новых непрочитанных сообщений. Поэма о море (1958) DVDRip-AVC

13 | 31

2.02 ГБ

В этой теме нет новых непрочитанных сообщений. Поэма о море (1958) DVDRip

33 | 5

1.37 ГБ

В этой теме нет новых непрочитанных сообщений. Мексиканец (1955) DVDRip от New-Team

25 | 4

1.09 ГБ

В этой теме нет новых непрочитанных сообщений. Два капитана (1955) DVDRip от New-Team

19 | 7

745.05 МБ




Вы не можете начинать темы
Вы не можете отвечать на сообщения
Вы не можете редактировать свои сообщения
Вы не можете удалять свои сообщения
Вы не можете добавлять вложения

Перейти:  
Для Мосгорсуда, Роскомнадзора и рекламодателей: mosgorsud-torrent[собачка]yandex.ru
 Вход
ppkBB3cker v.2 © 2008-2014 @ PPK
[ Time : 0.053s | 17 Queries | GZIP : Off ]

Торрент трекер RUTOR.IN, Не можете зайти на rutor.org? Какой новый адрес рутор? Какое зеркало рутор? Не работает rutor.org и зеркала? Тогда наш торрент специально для вас. Rutor.in неофициальное зеркало rutor. В случае если у Вас заблокирован rutor или вдруг Вы не можете на него зайти, то Вы без труда сможете скачать бесплатно и без рекламы последние новинки кино, игр, сериалов и прочего у нас, на Rutor.in. Не нужно использовать прокси, чтобы зайти на рутор, достаточно воспользоваться нашим ресурсом. Все новые фильмы, игры, сериалы, книги и музыка за 2013 и 2014 годы через торрент бесплатно. Скачивайте фильмы в хорошем качестве, игры для пк, xbox, playstation без регистрации. У нас вы найдете новые Зарубежные сериалы и Русские сериалы 2013, 2014, 2015 годов. Оставайтесь с нами, качайте любимые фильмы, игры, сериалы, книги и музыку.