img image001 image001 image001 image001 image001 image001 image001 image001 image001 image001 image001 image001 image001 image001 image001

Planets Sun Sun Sun
Статистика раздачи
Автор: Nickolas3434 | Размер: 743.96 МБ | Добавлен: 18 июн 2016
Раздают: 19    Качают: 1
Скачать торрент
Скачать торрент
Описание торрента

СообщениеДобавлено: 18 июн 2016 


Информация о фильме
Название: Я шагаю по Москве
Год выхода: 1963
Жанр: Комедия, мелодрама
Режиссер: Георгий Данелия
В ролях: Никита Михалков, Алексей Локтев, Галина Польских, Евгений Стеблов, Любовь Соколова, Ирина Титова, Ирина Мирошниченко, Владимир Басов ст., Ролан Быков, Лев Дуров, Арина Алейникова, Валентина Ананьина, Светлана Беседина, Вероника Васильева, Мария Виноградова, Н. Лихобабина, Евгения Мельникова, Анна Павлова, Алевтина Румянцева, Ирина Скобцева
О фильме:
Володя работает монтажником в Сибири, в Москве он проездом — его небольшой рассказ, опубликованный в журнале «Юность» вызвал интерес у писателя Воронина, пригласившего Володю на важный разговор. В метро он знакомится с Колей — молодым задорным пареньком, возвращающимся с ночной смены. Володя собирается остановиться у своих друзей, но не знает точно, где находится нужный переулок, Коля предлагает его проводить. На Чистопрудном бульваре Володю кусает оставленная без присмотра собака. Коля приглашает Володю домой, чтобы зашить порванные брюки, знакомит его с семьёй. Вскоре оказывается, что знакомые Володи уехали из Москвы на лето, Володя оставляет вещи у Коли и уходит по делам. Оставшись дома один, Коля надеется выспаться, но неожиданно к нему приходит друг Саша, которого забирают в армию. Саша просит Колю пойти с ним в военкомат, чтобы получит отсрочку от призыва в связи с тем, что Саша сегодня женится на Свете. После военкомата друзья идут в ГУМ, чтобы выбрать жениху новый пиджак. Там они встречают Володю, как раз купившего себе новый костюм, и Коля предлагает вместо пиджака купить невесте подарок. Они идут в магазин пластинок, где работает его знакомая Алёна…

Страна: СССР
Студия: Мосфильм
Продолжительность: 01:13:25
Перевод: Не требуется
Файл
Кодек: XviD
Качество: HDDVDRip
Видео: 688x288 (2.39:1), 25 fps, XviD build 73 ~1278 kbps avg, 0.26 bit/pixel
Звук: 48 kHz, MPEG Layer 3, 2 ch, ~128.00 kbps avg
Субтитры: Отсутствуют
Семпл
General
Complete name : D:Изготовление рипаЯ шагаю по Москве_1963-HDDVDRip.by_shkiper.avi
Format : AVI
Format/Info : Audio Video Interleave
File size : 744 MiB
Duration : 1h 13mn
Overall bit rate : 1 417 Kbps
Writing application : VirtualDubMod 1.5.10.3 | www.virtualdub-fr.org || (build 2550/release)
Writing library : VirtualDubMod build 2550/release
Video
ID : 0
Format : MPEG-4 Visual
Format profile : Advanced Simple@L5
Format settings, BVOP : 1
Format settings, QPel : No
Format settings, GMC : No warppoints
Format settings, Matrix : Custom
Codec ID : XVID
Codec ID/Hint : XviD
Duration : 1h 13mn
Bit rate : 1 279 Kbps
Width : 688 pixels
Height : 288 pixels
Display aspect ratio : 2.40:1
Frame rate : 25.000 fps
Color space : YUV
Chroma subsampling : 4:2:0
Bit depth : 8 bits
Scan type : Progressive
Compression mode : Lossy
Bits/(Pixel*Frame) : 0.258
Stream size : 672 MiB (90%)
Writing library : XviD 73
Audio
ID : 1
Format : MPEG Audio
Format version : Version 1
Format profile : Layer 3
Codec ID : 55
Codec ID/Hint : MP3
Duration : 1h 13mn
Bit rate mode : Constant
Bit rate : 128 Kbps
Channel(s) : 2 channels
Sampling rate : 48.0 KHz
Compression mode : Lossy
Stream size : 67.2 MiB (9%)
Alignment : Aligned on interleaves
Interleave, duration : 40 ms (1.00 video frame)
Interleave, preload duratio : 504 ms
Writing library : LAME3.99r
Encoding settings : -m s -V 4 -q 2 -lowpass 17 -b 128

Релиз от:



   Похожие торренты   Торрент   Размер 
В этой теме нет новых непрочитанных сообщений. Я шагаю по Москве (1963) HDDVDRip 720p от ExKinoRay

168 | 20

2.91 ГБ

В этой теме нет новых непрочитанных сообщений. Я шагаю по Москве (1963) DVDRip от MediaClub | КПК

66 | 9

329.26 МБ

В этой теме нет новых непрочитанных сообщений. Я шагаю по Москве (1963) DVDrip от PlanetaUA

40 | 5

1.46 ГБ

В этой теме нет новых непрочитанных сообщений. Я шагаю по Москве (1963) DVDRip от Youtracker

82 | 5

744.36 МБ

В этой теме нет новых непрочитанных сообщений. Я шагаю по Москве (1963) DVDRip от Youtracker

56 | 13

1.46 ГБ

В этой теме нет новых непрочитанных сообщений. Я шагаю по Москве (1963) DVDRip-AVC от Youtracker

249 | 9

1.46 ГБ

В этой теме нет новых непрочитанных сообщений. Я шагаю по Москве (1963) DVD5 от Youtracker | Сжатый

0 | 4

4.36 ГБ




Вы не можете начинать темы
Вы не можете отвечать на сообщения
Вы не можете редактировать свои сообщения
Вы не можете удалять свои сообщения
Вы не можете добавлять вложения

Перейти:  
Для Мосгорсуда, Роскомнадзора и рекламодателей: mosgorsud-torrent[собачка]yandex.ru
 Вход
ppkBB3cker v.2 © 2008-2014 @ PPK
[ Time : 2.134s | 14 Queries | GZIP : Off ]

Торрент трекер RUTOR.IN, Не можете зайти на rutor.org? Какой новый адрес рутор? Какое зеркало рутор? Не работает rutor.org и зеркала? Тогда наш торрент специально для вас. Rutor.in неофициальное зеркало rutor. В случае если у Вас заблокирован rutor или вдруг Вы не можете на него зайти, то Вы без труда сможете скачать бесплатно и без рекламы последние новинки кино, игр, сериалов и прочего у нас, на Rutor.in. Не нужно использовать прокси, чтобы зайти на рутор, достаточно воспользоваться нашим ресурсом. Все новые фильмы, игры, сериалы, книги и музыка за 2013 и 2014 годы через торрент бесплатно. Скачивайте фильмы в хорошем качестве, игры для пк, xbox, playstation без регистрации. У нас вы найдете новые Зарубежные сериалы и Русские сериалы 2013, 2014, 2015 годов. Оставайтесь с нами, качайте любимые фильмы, игры, сериалы, книги и музыку.