img image001 image001 image001 image001 image001 image001 image001 image001 image001 image001 image001 image001 image001 image001 image001

Planets Sun Sun Sun
Статистика раздачи
Автор: Nickolas3434 | Размер: 1.05 ГБ | Добавлен: 19 июн 2016
Раздают: 113    Качают: 13
Скачать торрент
Скачать торрент
Описание торрента

СообщениеДобавлено: 19 июн 2016 


Информация о фильме
Название: Жениться в 24 часа
Год выхода: 2004
Жанр: комедия
Режиссер: Анатолий Эйрамджан
В ролях: Леонид Карпович, Екатерина Зинченко, Виктор Ильичёв, Светлана Постемская
О фильме:
Катя прочитала в интернете объявление нашего эмигранта в Майами: " Женюсь в 24 часа на женщине, которая хорошо готовит борщ! "
Катя была не замужем, борщ умела готовить, она ответила на письмо и вот... она приехала в Майами. Где и начались ее приключения...
Сценарист: Анатолий Эйрамджан
Оператор: Евгений Давыдов
Художник: Оксана Шагдар
Продюсер: Анатолий Эйрамджан

Запись потока *.ts с наземного цифрового телеканала "Беларусь 3", ремукс в *.mkv программой VideoReDo.
Во время показа финальных интертитров происходит анонс следующей передачи (видно на скрине)
Страна: Российская Федерация
Студия: Новый Одеон
Продолжительность: 00:59:51
Перевод: не требует
Файл
Кодек: AVC (H264)
Качество: DVB
Видео: AVC (H264), 720x576 (4:3), 25 fps, 2 207 Kbps
Звук: MP2, 256 kbps, 2 channels, 48 kHz
Семпл
Код:
General
Unique ID                      : 281786539868153845832075949847526792583 (0xD3FE1D0EB639A7078B7983FC56B45D87)
Complete name                  : D:Новая  земля 2Художественные фильмыЖениться в 24 часа (2004)Жениться в 24 часа (2004).mkv
Format                         : Matroska
Format version                 : Version 2
File size                      : 1.05 GiB
Duration                       : 59mn 50s
Overall bit rate               : 2 513 Kbps
Writing application            : Lavf52.64.2
Writing library                : Lavf52.64.2
Video
ID                             : 1
Format                         : AVC
Format/Info                    : Advanced Video Codec
Format profile                 : Main@L3.0
Format settings, CABAC         : Yes
Format settings, ReFrames      : 4 frames
Codec ID                       : V_MPEG4/ISO/AVC
Duration                       : 59mn 50s
Bit rate                       : 2 207 Kbps
Width                          : 720 pixels
Height                         : 576 pixels
Display aspect ratio           : 4:3
Original display aspect ratio  : 4:3
Frame rate mode                : Constant
Frame rate                     : 25.000 fps
Standard                       : PAL
Color space                    : YUV
Chroma subsampling             : 4:2:0
Bit depth                      : 8 bits
Scan type                      : MBAFF
Scan order                     : Top Field First
Bits/(Pixel*Frame)             : 0.213
Stream size                    : 945 MiB (88%)
Default                        : Yes
Forced                         : No
Color primaries                : BT.601 PAL
Transfer characteristics       : BT.470 System B, BT.470 System G
Matrix coefficients            : BT.601
Color range                    : Limited
Audio
ID                             : 2
Format                         : MPEG Audio
Format version                 : Version 1
Format profile                 : Layer 2
Codec ID                       : A_MPEG/L2
Codec ID/Hint                  : MP2
Duration                       : 59mn 50s
Bit rate mode                  : Constant
Bit rate                       : 256 Kbps
Channel(s)                     : 2 channels
Sampling rate                  : 48.0 KHz
Compression mode               : Lossy
Stream size                    : 110 MiB (10%)
Language                       : English
Default                        : Yes
Forced                         : No





   Похожие торренты   Торрент   Размер 
В этой теме нет новых непрочитанных сообщений. Славянский базар 2004. Антология (2004) DVB от AND03AND

0 | 2

988.07 МБ

В этой теме нет новых непрочитанных сообщений. 24 часа / 24 [S03] (2004) WEB-DLRip от Scarabey | D

101 | 31

15.52 ГБ

В этой теме нет новых непрочитанных сообщений. 24 часа / 24 [S03] (2004) DVDRip от Scarabey | А

32 | 28

17.17 ГБ

В этой теме нет новых непрочитанных сообщений. Валентин Пикуль - Париж на три часа (1962) (2004) MP3

47 | 6

336.54 МБ

В этой теме нет новых непрочитанных сообщений. Заторможенный рефлекс (2004) DVB от AND03AND

80 | 27

1.16 ГБ

В этой теме нет новых непрочитанных сообщений. Валерий Чкалов [01-04 из 04] (2004) DVB от AND03AND

0 | 0

1.83 ГБ

В этой теме нет новых непрочитанных сообщений. Элвис Пресли: последние 24 часа / Elvis Presley: The Last 24 Hours (2004) SATRip

0 | 34

484.88 МБ




Вы не можете начинать темы
Вы не можете отвечать на сообщения
Вы не можете редактировать свои сообщения
Вы не можете удалять свои сообщения
Вы не можете добавлять вложения

Перейти:  
Для Мосгорсуда, Роскомнадзора и рекламодателей: mosgorsud-torrent[собачка]yandex.ru
 Вход
ppkBB3cker v.2 © 2008-2014 @ PPK
[ Time : 1.982s | 14 Queries | GZIP : Off ]

Торрент трекер RUTOR.IN, Не можете зайти на rutor.org? Какой новый адрес рутор? Какое зеркало рутор? Не работает rutor.org и зеркала? Тогда наш торрент специально для вас. Rutor.in неофициальное зеркало rutor. В случае если у Вас заблокирован rutor или вдруг Вы не можете на него зайти, то Вы без труда сможете скачать бесплатно и без рекламы последние новинки кино, игр, сериалов и прочего у нас, на Rutor.in. Не нужно использовать прокси, чтобы зайти на рутор, достаточно воспользоваться нашим ресурсом. Все новые фильмы, игры, сериалы, книги и музыка за 2013 и 2014 годы через торрент бесплатно. Скачивайте фильмы в хорошем качестве, игры для пк, xbox, playstation без регистрации. У нас вы найдете новые Зарубежные сериалы и Русские сериалы 2013, 2014, 2015 годов. Оставайтесь с нами, качайте любимые фильмы, игры, сериалы, книги и музыку.