img image001 image001 image001 image001 image001 image001 image001 image001 image001 image001 image001 image001 image001 image001 image001

Planets Sun Sun Sun
Статистика раздачи
Автор: Nickolas3434 | Размер: 1.46 ГБ | Добавлен: 19 июн 2016
Раздают: 27    Качают: 1
Скачать торрент
Скачать торрент
Описание торрента

СообщениеДобавлено: 19 июн 2016 


Информация о фильме
Название: 34-й скорый
Год выхода: 1981
Жанр: Катастрофа, драма
Режиссёр: Андрей Малюков
В ролях: Лев Дуров, Леонид Трутнев, Александр Рыщенков, Елена Майорова, Вячеслав Езепов, Альгимантас Масюлис, Ирина Печерникова, Валерий Рыжаков, Марина Шиманская, Александр Фатюшин, Олег Голубицкий , Петерис Гаудыньш, Александр Пятков, Зоя Василькова, Даниил Нетребин, Наталья Харахорина, Анатолий Веденкин, Валентина Клягина, Григорий Маликов
О фильме: Скорый поезд №34 "Москва-Элекмонар" отправился точно по расписанию. Пассажиры спокойно готовились ко сну, когда в опустевшем купе от непогашенной сигареты загорелась занавеска. Вскоре загорелся и весь вагон. Ужасная катастрофа зависла над всеми пассажирами мчащегося в ночь поезда...

Страна: СССР
Студия: Мосфильм
Продолжительность: 01:18:18
Перевод: Не требуется (оригинальный)
Файл
Формат: avi
Качество: SATRip (DVB)
Видео: XviD, 720х304, 25fps, 2400kbps
Аудио: AC3 Dolby Digital, 2ch, 48000Hz, 256kbps

General
Complete name : 34.Skoryi.1981.O.SATRip.1400.CurHaJI.avi
Format : AVI
Format/Info : Audio Video Interleave
File size : 1.46 GiB
Duration : 1h 18mn
Overall bit rate : 2 666 Kbps
Movie name : 34.Skoryi.1981.O.SATRip.1400.CurHaJI
Writing application : VirtualDubMod 1.5.10.3 | www.virtualdub-fr.org || (build 2550/release)
Writing library : VirtualDub build 35491/release
Video
ID : 0
Format : MPEG-4 Visual
Format profile : Advanced Simple@L5
Format settings, BVOP : 2
Format settings, QPel : No
Format settings, GMC : No warppoints
Format settings, Matrix : Custom
Codec ID : XVID
Codec ID/Hint : XviD
Duration : 1h 18mn
Bit rate : 2 400 Kbps
Width : 720 pixels
Height : 304 pixels
Display aspect ratio : 2.35:1
Frame rate : 25.000 fps
Color space : YUV
Chroma subsampling : 4:2:0
Bit depth : 8 bits
Scan type : Progressive
Compression mode : Lossy
Bits/(Pixel*Frame) : 0.439
Stream size : 1.31 GiB (90%)
Writing library : XviD 73
Audio
ID : 1
Format : AC-3
Format/Info : Audio Coding 3
Mode extension : CM (complete main)
Format settings, Endianness : Big
Codec ID : 2000
Duration : 1h 18mn
Bit rate mode : Constant
Bit rate : 256 Kbps
Channel(s) : 2 channels
Channel positions : Front: L R
Sampling rate : 48.0 KHz
Bit depth : 16 bits
Compression mode : Lossy
Stream size : 143 MiB (10%)
Alignment : Split accross interleaves
Interleave, duration : 40 ms (1.00 video frame)
Interleave, preload duration : 500 ms


Релиз от:



   Похожие торренты   Торрент   Размер 
В этой теме нет новых непрочитанных сообщений. 34-й скорый (1981) DVDRip

269 | 19

1.09 ГБ

В этой теме нет новых непрочитанных сообщений. 34-й скорый (1981) DVDRip

9 | 2

743.7 МБ

В этой теме нет новых непрочитанных сообщений. Скорый поезд «Сансет-лимитед» / Скорый «Закат» / Ограниченный закат / Предельный закат / The Sunset Limited (2011) HDTVRip

0 | 3

743.09 МБ

В этой теме нет новых непрочитанных сообщений. Скорый поезд (1988) SATRip от Amelj

23 | 32

745.31 МБ

В этой теме нет новых непрочитанных сообщений. Первый дома + Первый скорый [01-02 из 02] (2006-2007) SATRip

3 | 0

2.48 ГБ

В этой теме нет новых непрочитанных сообщений. Скорый «Москва-Россия» (2014) TS

437 | 13

693.77 МБ

В этой теме нет новых непрочитанных сообщений. Скорый «Москва-Россия» (2014) TS

4889 | 167

1.37 ГБ




Вы не можете начинать темы
Вы не можете отвечать на сообщения
Вы не можете редактировать свои сообщения
Вы не можете удалять свои сообщения
Вы не можете добавлять вложения

Перейти:  
Для Мосгорсуда, Роскомнадзора и рекламодателей: mosgorsud-torrent[собачка]yandex.ru
 Вход
ppkBB3cker v.2 © 2008-2014 @ PPK
[ Time : 0.028s | 15 Queries | GZIP : Off ]

Торрент трекер RUTOR.IN, Не можете зайти на rutor.org? Какой новый адрес рутор? Какое зеркало рутор? Не работает rutor.org и зеркала? Тогда наш торрент специально для вас. Rutor.in неофициальное зеркало rutor. В случае если у Вас заблокирован rutor или вдруг Вы не можете на него зайти, то Вы без труда сможете скачать бесплатно и без рекламы последние новинки кино, игр, сериалов и прочего у нас, на Rutor.in. Не нужно использовать прокси, чтобы зайти на рутор, достаточно воспользоваться нашим ресурсом. Все новые фильмы, игры, сериалы, книги и музыка за 2013 и 2014 годы через торрент бесплатно. Скачивайте фильмы в хорошем качестве, игры для пк, xbox, playstation без регистрации. У нас вы найдете новые Зарубежные сериалы и Русские сериалы 2013, 2014, 2015 годов. Оставайтесь с нами, качайте любимые фильмы, игры, сериалы, книги и музыку.
cron