img image001 image001 image001 image001 image001 image001 image001 image001 image001 image001 image001 image001 image001 image001 image001

Planets Sun Sun Sun
Статистика раздачи
Автор: Nickolas3434 | Размер: 744.29 МБ | Добавлен: 20 июн 2016
Раздают: 24    Качают: 2
Скачать торрент
Скачать торрент
Описание торрента

СообщениеДобавлено: 20 июн 2016 


Информация о фильме
Название: Делай - раз!
Год выхода: 1989
Жанр: Драма, военный,
Режиссер: Андрей Малюков
В ролях: Евгений Миронов, Владимир Машков, Александр Домогаров, Алексей Бурыкин, Сергей Шенталинский, Александр Польков, Владимир Смирнов, Олег Александров, Владислав Бычков, Александр Миронов
О фильме:
Новобранец Алексей Гаврилов попадает в часть, где царит дедовщина. Он как может сопротивляется трем «дедам», которые накануне дембеля решают по максимуму отыграться на «черепах» за былые унижения. Вскоре он находит единомышленника. Не сумев сломить волю строптивцев, «деды» осуществляют подлую провокацию, и тогда Алексей решается на отчаянный шаг...

Страна: СССР
Студия: Мосфильм
Продолжительность: 01:20:14
Перевод: Не требуется
Файл
Кодек: XviD
Качество: DVDRip
Видео: 688x288 (2.39:1), 25 fps, XviD build 73 ~1159 kbps avg, 0.23 bit/pixel
Звук: 48 kHz, MPEG Layer 3, 2 ch, ~128.00 kbps avg
Субтитры: Отсутствуют
Семпл
General
Complete name : D:Изготовление рипаDelai Raz (1989) DVDRip by shkiper.avi
Format : AVI
Format/Info : Audio Video Interleave
File size : 744 MiB
Duration : 1h 20mn
Overall bit rate : 1 297 Kbps
Writing application : VirtualDubMod 1.5.10.3 | www.virtualdub-fr.org || (build 2550/release)
Writing library : VirtualDubMod build 2550/release
Video
ID : 0
Format : MPEG-4 Visual
Format profile : Advanced Simple@L5
Format settings, BVOP : 1
Format settings, QPel : No
Format settings, GMC : No warppoints
Format settings, Matrix : Custom
Codec ID : XVID
Codec ID/Hint : XviD
Duration : 1h 20mn
Bit rate : 1 159 Kbps
Width : 688 pixels
Height : 288 pixels
Display aspect ratio : 2.40:1
Frame rate : 25.000 fps
Color space : YUV
Chroma subsampling : 4:2:0
Bit depth : 8 bits
Scan type : Progressive
Compression mode : Lossy
Bits/(Pixel*Frame) : 0.234
Stream size : 665 MiB (89%)
Writing library : XviD 73
Audio
ID : 1
Format : MPEG Audio
Format version : Version 1
Format profile : Layer 3
Codec ID : 55
Codec ID/Hint : MP3
Duration : 1h 20mn
Bit rate mode : Constant
Bit rate : 128 Kbps
Channel(s) : 2 channels
Sampling rate : 48.0 KHz
Compression mode : Lossy
Stream size : 73.5 MiB (10%)
Alignment : Aligned on interleaves
Interleave, duration : 40 ms (1.00 video frame)
Interleave, preload duratio : 504 ms
Writing library : LAME3.99r
Encoding settings : -m s -V 4 -q 2 -lowpass 17 -b 128

Релиз от:



   Похожие торренты   Торрент   Размер 
В этой теме нет новых непрочитанных сообщений. Делай - раз! (1989) DVDRip

175 | 23

1.44 ГБ

В этой теме нет новых непрочитанных сообщений. Делай-раз! (1989) DVDRip-AVC

2 | 2

740.98 МБ

В этой теме нет новых непрочитанных сообщений. Делай - раз! (1989) DVDRip

72 | 7

739.85 МБ

В этой теме нет новых непрочитанных сообщений. Делай - Раз! (1989) DVD5

67 | 5

3.95 ГБ

В этой теме нет новых непрочитанных сообщений. Делай как надо! / Do the Right Thing (1989) HDRip | P2

14 | 0

1.46 ГБ

В этой теме нет новых непрочитанных сообщений. Делай как надо / Do the Right Thing (1989) BDRip 720p | Р2, А

13 | 3

8.09 ГБ

В этой теме нет новых непрочитанных сообщений. Делай как надо! / Do the Right Thing (1989) BDRip от HELLYWOOD

13 | 4

2.18 ГБ




Вы не можете начинать темы
Вы не можете отвечать на сообщения
Вы не можете редактировать свои сообщения
Вы не можете удалять свои сообщения
Вы не можете добавлять вложения

Перейти:  
Для Мосгорсуда, Роскомнадзора и рекламодателей: mosgorsud-torrent[собачка]yandex.ru
 Вход
ppkBB3cker v.2 © 2008-2014 @ PPK
[ Time : 0.052s | 16 Queries | GZIP : Off ]

Торрент трекер RUTOR.IN, Не можете зайти на rutor.org? Какой новый адрес рутор? Какое зеркало рутор? Не работает rutor.org и зеркала? Тогда наш торрент специально для вас. Rutor.in неофициальное зеркало rutor. В случае если у Вас заблокирован rutor или вдруг Вы не можете на него зайти, то Вы без труда сможете скачать бесплатно и без рекламы последние новинки кино, игр, сериалов и прочего у нас, на Rutor.in. Не нужно использовать прокси, чтобы зайти на рутор, достаточно воспользоваться нашим ресурсом. Все новые фильмы, игры, сериалы, книги и музыка за 2013 и 2014 годы через торрент бесплатно. Скачивайте фильмы в хорошем качестве, игры для пк, xbox, playstation без регистрации. У нас вы найдете новые Зарубежные сериалы и Русские сериалы 2013, 2014, 2015 годов. Оставайтесь с нами, качайте любимые фильмы, игры, сериалы, книги и музыку.
cron