img image001 image001 image001 image001 image001 image001 image001 image001 image001 image001 image001 image001 image001 image001 image001

Planets Sun Sun Sun
Статистика раздачи
Автор: Nickolas3434 | Размер: 743.44 МБ | Добавлен: 21 июн 2016
Раздают: 11    Качают: 4
Скачать торрент
Скачать торрент
Описание торрента

СообщениеДобавлено: 21 июн 2016 

Страна: СССР
Производство: Киностудия им. М.Горького
Жанр: драма, приключения
Год выпуска: 1955
Продолжительность: 01:25:03
Перевод: Не требуется
Cубтитры: нет
Оригинальная аудиодорожка: русский
Режиссер: Виктор Эйсымонт
В ролях:
Даниил Сагал, Сережа Ясинский, Алла Ларионова, Андрей Абрикосов, Виктор Хохряков, Клавдия Половикова, Александр Лебедев, Василий Краснощеков, Леонид Пирогов, Николай Тимофеев, Борис Бурляев, Валя Рогачева...
Полный список актёров
Описание:
Кристальный коммунист Аркадий Петрович Гайдар позволил себе написать «Судьбу барабанщика» — говоря словами Достоевского, книгу «далеко не безобидную». Писалась она в 1937-38 годах и рассказывала о сыне заключенного — в прошлом командира Красной Армии, ныне отбывающего срок «за растрату». На первый взгляд это — повесть о патриотизме и бдительности. На взгляд внимательный и пристрастный — документ тревожного и трагичного времени.
Просоветского и милитаризованного Гайдара не принято хвалить. Но факт остается фактом: Гайдар — блистательный стилист. Атмосфера и ритм его прозы удивительны. «А жизнь, товарищи, была совсем хорошая!» — восклицает он в «Голубой чашке». Перечитайте «Судьбу барабанщика», она пронизана тревогой, смятенностью. «Хорошая жизнь» здесь становится уязвимой, зыбкой, вплоть до того, что порою кажется видением, сном. Реален страх, реальна зловещая тень, отбрасываемая на «хорошую жизнь» неким безымянным злом. Теперь-то мы знаем его имена: террор, ГУЛАГ. Лояльный Гайдар, естественно, и не мыслил называть все своими именами, но дыхание этого ада описал с удивительной достоверностью.
Превращая большую повесть в сценарий полуторачасового фильма, Гайдар, невольно освобождаясь от «описаний» и авторских отступлений, оставил лишь магистральную сюжетную линию. В результате произведение потеряло то, что составляло ценность и своеобразие литературного первоисточника. «Судьбу барабанщика» Гайдар своею собственной рукой превратил в незамысловатый сюжет о шпионах, напрочь лишенный загадки и обаяния повести с ее тревожным двоением смыслов. Реальность в фильме не просто перестает слоиться и зыбиться, как это было в книге, но, более того, перестает быть реальностью, становится одним из распространенных мифов сталинской эпохи — о врагах и диверсантах.





Источник: DVD5 R5
Качество видео: DVDRip
Формат видео: AVI
Видео: 640x480 (4:3), 25 fps, XviD ~ 1084 kbps avg, 0.141 bit/pixel
Аудио: 48 kHz, MP3 2.0, 128 kbps
Раздача от:
Общее
Полное имя : Sudba.darabanshika.1955.DVDRip-745_[New-team]_by_AVP_Studio.avi
Формат : AVI
Формат/Информация : Audio Video Interleave
Размер файла : 743 Мбайт
Продолжительность : 1 ч. 25 м.
Общий поток : 1222 Кбит/сек
Программа кодирования : VirtualDubMod 1.5.10.3 | www.virtualdub-fr.org || (build 2550/release)
Библиотека кодирования : VirtualDubMod build 2550/release
Видео
Идентификатор : 0
Формат : MPEG-4 Visual
Профиль формата : Advanced Simple@L5
Параметр BVOP формата : 1
Параметр QPel формата : Нет
Параметр GMC формата : Без точки перехода
Параметр матрицы формата : Выборочная
Идентификатор кодека : XVID
Идентификатор кодека/Подсказка : XviD
Продолжительность : 1 ч. 25 м.
Битрейт : 1084 Кбит/сек
Ширина : 640 пикселей
Высота : 480 пикселей
Соотношение сторон : 4:3
Частота кадров : 25,000 кадров/сек
Цветовое пространство : YUV
Субдискретизация насыщенности : 4:2:0
Битовая глубина : 8 бит
Тип развёртки : Прогрессивная
Метод сжатия : С потерями
Бит/(Пиксели*Кадры) : 0.141
Размер потока : 660 Мбайт (89%)
Библиотека кодирования : XviD 1.2.1 (UTC 2008-12-04)
Аудио
Идентификатор : 1
Формат : MPEG Audio
Версия формата : Version 1
Профиль формата : Layer 3
Идентификатор кодека : 55
Идентификатор кодека/Подсказка : MP3
Продолжительность : 1 ч. 25 м.
Вид битрейта : Постоянный
Битрейт : 128 Кбит/сек
Каналы : 2 канала
Частота : 48,0 КГц
Метод сжатия : С потерями
Размер потока : 77,9 Мбайт (10%)
Выравнивание : Соединение по промежуткам
Продолжительность промежутка : 40 мс. (1,00 видеокадр)
Время предзагрузки промежутка : 504 мс.
Библиотека кодирования : LAME3.99r
Настройки программы : -m s -V 4 -q 2 -lowpass 17 -b 128





   Похожие торренты   Торрент   Размер 
В этой теме нет новых непрочитанных сообщений. Судьба барабанщика (1955) DVDRip-AVC от New-Team

35 | 4

1.09 ГБ

В этой теме нет новых непрочитанных сообщений. Судьба барабанщика (1955) DVDRip от New-Team

14 | 6

1.09 ГБ

В этой теме нет новых непрочитанных сообщений. Судьба барабанщика (1955) DVDRip

36 | 8

1.28 ГБ

В этой теме нет новых непрочитанных сообщений. Судьба барабанщика [01-03 из 03] (1976) SATRip от New-Team

19 | 3

2.84 ГБ

В этой теме нет новых непрочитанных сообщений. Судьба барабанщика [01-03 из 03] (1976) SATRip-AVC от New-Team

41 | 3

2.91 ГБ

В этой теме нет новых непрочитанных сообщений. Судьба барабанщика [01-03 из 03] (1976) SATRip от New-Team

92 | 4

1.46 ГБ

В этой теме нет новых непрочитанных сообщений. Мексиканец (1955) DVDRip-AVC от New-Team

24 | 2

1.09 ГБ




Вы не можете начинать темы
Вы не можете отвечать на сообщения
Вы не можете редактировать свои сообщения
Вы не можете удалять свои сообщения
Вы не можете добавлять вложения

Перейти:  
Для Мосгорсуда, Роскомнадзора и рекламодателей: mosgorsud-torrent[собачка]yandex.ru
 Вход
ppkBB3cker v.2 © 2008-2014 @ PPK
[ Time : 0.048s | 15 Queries | GZIP : On ]

Торрент трекер RUTOR.IN, Не можете зайти на rutor.org? Какой новый адрес рутор? Какое зеркало рутор? Не работает rutor.org и зеркала? Тогда наш торрент специально для вас. Rutor.in неофициальное зеркало rutor. В случае если у Вас заблокирован rutor или вдруг Вы не можете на него зайти, то Вы без труда сможете скачать бесплатно и без рекламы последние новинки кино, игр, сериалов и прочего у нас, на Rutor.in. Не нужно использовать прокси, чтобы зайти на рутор, достаточно воспользоваться нашим ресурсом. Все новые фильмы, игры, сериалы, книги и музыка за 2013 и 2014 годы через торрент бесплатно. Скачивайте фильмы в хорошем качестве, игры для пк, xbox, playstation без регистрации. У нас вы найдете новые Зарубежные сериалы и Русские сериалы 2013, 2014, 2015 годов. Оставайтесь с нами, качайте любимые фильмы, игры, сериалы, книги и музыку.