img image001 image001 image001 image001 image001 image001 image001 image001 image001 image001 image001 image001 image001 image001 image001

Planets Sun Sun Sun
Статистика раздачи
Автор: PriZraK | Размер: 1.09 ГБ | Добавлен: 28 июн 2016
Раздают: 4    Качают: 1
Скачать торрент
Скачать торрент
Описание торрента

СообщениеДобавлено: 28 июн 2016 

Страна: СССР
Производство: Алма-Атинская студия
Жанр: комедия
Год выпуска: 1955
Продолжительность: 01:31:00
Перевод: Не требуется
Cубтитры: нет
Оригинальная аудиодорожка: русский
Режиссер: Павел Боголюбов
В ролях:
Лидия Ашрапова, Кененбай Кожабеков, Мулюк Суртубаев, Варвара Сошальская, Анатолий Алексеев, Сабира Майканова, А. Мухамедьяров, Канабек Байсеитов, Игорь Боголюбов, Сайфулла Тельгараев, Константин Старостин, Бикен Римова, Амина Умурзакова, Д. Таялиева, Тамара Думная, Серке (Сералы) Кожамкулов...
Полный список актёров
Описание:
Молодой колхозный коневод Айдар и старшая табунщица конезавода Галия давно любят друг друга. Случается так, что из-за недоразумения между молодыми людьми возникает размолвка. Это обстоятельство пытается использовать заведующий магазином Ангарбай, который не прочь стать женихом Галии.
Айдар мечтает завести в своем колхозе племенных породистых лошадей. Но председатель колхоза, его отец, отказывается выделить средства. Стремясь убедить несговорчивого папашу в том, что колхозные лошади действительно плохи, Айдар решает на скачках уступить первенство Галие.
Девушка, в свою очередь, придерживает коня, чтобы дать возможность отличиться возлюбленному и по старому обычаю получить от него в награду поцелуй. Но напрасны старания девушки. Айдар все же приходит последним. Поражение Айдара заставляет его отца раскошелиться на покупку племенных коней. Однако молодой коневод надолго теряет расположение любимой девушки.
После ряда случайностей недоразумение между любимыми улаживается, фильм заканчивается веселым свадебным праздником.





Источник: DVB
Качество видео: SATRip
Формат видео: AVI
Видео: 688x512 (4:3), 25 fps, XviD ~ 1512 kbps avg, 0.172 bit/pixel
Аудио: 48 kHz, Dolby Digital AC3 2.0, 192 kbps
Раздача от:
Общее
Полное имя : Devushka-dzhigit.1955.SATRip_[New-team]_by_AVP_Studio.avi
Формат : AVI
Формат/Информация : Audio Video Interleave
Размер файла : 1,09 Гбайт
Продолжительность : 1 ч. 31 м.
Общий поток : 1714 Кбит/сек
Программа кодирования : VirtualDubMod 1.5.10.3 | www.virtualdub-fr.org || (build 2550/release)
Библиотека кодирования : VirtualDubMod build 2550/release
Видео
Идентификатор : 0
Формат : MPEG-4 Visual
Профиль формата : Advanced Simple@L5
Параметр BVOP формата : 1
Параметр QPel формата : Нет
Параметр GMC формата : Без точки перехода
Параметр матрицы формата : Выборочная
Идентификатор кодека : XVID
Идентификатор кодека/Подсказка : XviD
Продолжительность : 1 ч. 31 м.
Битрейт : 1512 Кбит/сек
Ширина : 688 пикселей
Высота : 512 пикселей
Соотношение сторон : 4:3
Частота кадров : 25,000 кадров/сек
Цветовое пространство : YUV
Субдискретизация насыщенности : 4:2:0
Битовая глубина : 8 бит
Тип развёртки : Прогрессивная
Метод сжатия : С потерями
Бит/(Пиксели*Кадры) : 0.172
Размер потока : 984 Мбайт (88%)
Библиотека кодирования : XviD 1.2.1 (UTC 2008-12-04)
Аудио
Идентификатор : 1
Формат : AC-3
Формат/Информация : Audio Coding 3
Расширение режима : CM (complete main)
Параметр Endianness формата : Big
Идентификатор кодека : 2000
Продолжительность : 1 ч. 31 м.
Вид битрейта : Постоянный
Битрейт : 192 Кбит/сек
Каналы : 2 канала
Расположение каналов : Front: L R
Частота : 48,0 КГц
Частота кадров : 31,250 кадров/сек (1536 spf)
Метод сжатия : С потерями
Размер потока : 125 Мбайт (11%)
Выравнивание : Разделение по промежуткам
Продолжительность промежутка : 40 мс. (1,00 видеокадр)
Время предзагрузки промежутка : 500 мс





   Похожие торренты   Торрент   Размер 
В этой теме нет новых непрочитанных сообщений. Девушка джигит (1955) SATRip от New-Team

2 | 1

744.66 МБ

В этой теме нет новых непрочитанных сообщений. Девушка джигит (1955) SATRip-AVC от New-Team

8 | 1

1.09 ГБ

В этой теме нет новых непрочитанных сообщений. Девушка-джигит (1955) SATRip

3 | 3

1.23 ГБ

В этой теме нет новых непрочитанных сообщений. Девушка на красных бархатных качелях / Девушка в розовом платье / The Girl in the Red Velvet Swing (1955) DVDRip | A

1 | 0

1.6 ГБ

В этой теме нет новых непрочитанных сообщений. Сын (1955) SATRip-AVC от New-Team

14 | 1

1.09 ГБ

В этой теме нет новых непрочитанных сообщений. Сын (1955) SATRip от New-Team

4 | 2

744.6 МБ

В этой теме нет новых непрочитанных сообщений. Сын (1955) SATRip от New-Team

4 | 2

1.09 ГБ




Вы не можете начинать темы
Вы не можете отвечать на сообщения
Вы не можете редактировать свои сообщения
Вы не можете удалять свои сообщения
Вы не можете добавлять вложения

Перейти:  
Для Мосгорсуда, Роскомнадзора и рекламодателей: mosgorsud-torrent[собачка]yandex.ru
 Вход
ppkBB3cker v.2 © 2008-2014 @ PPK
[ Time : 0.066s | 16 Queries | GZIP : Off ]

Торрент трекер RUTOR.IN, Не можете зайти на rutor.org? Какой новый адрес рутор? Какое зеркало рутор? Не работает rutor.org и зеркала? Тогда наш торрент специально для вас. Rutor.in неофициальное зеркало rutor. В случае если у Вас заблокирован rutor или вдруг Вы не можете на него зайти, то Вы без труда сможете скачать бесплатно и без рекламы последние новинки кино, игр, сериалов и прочего у нас, на Rutor.in. Не нужно использовать прокси, чтобы зайти на рутор, достаточно воспользоваться нашим ресурсом. Все новые фильмы, игры, сериалы, книги и музыка за 2013 и 2014 годы через торрент бесплатно. Скачивайте фильмы в хорошем качестве, игры для пк, xbox, playstation без регистрации. У нас вы найдете новые Зарубежные сериалы и Русские сериалы 2013, 2014, 2015 годов. Оставайтесь с нами, качайте любимые фильмы, игры, сериалы, книги и музыку.
cron