img image001 image001 image001 image001 image001 image001 image001 image001 image001 image001 image001 image001 image001 image001 image001

Planets Sun Sun Sun
Статистика раздачи
Автор: PriZraK | Размер: 744.66 МБ | Добавлен: 29 июн 2016
Раздают: 9    Качают: 4
Скачать торрент
Скачать торрент
Описание торрента

СообщениеДобавлено: 29 июн 2016 

Страна: СССР
Производство: Алма-Атинская студия
Жанр: комедия
Год выпуска: 1955
Продолжительность: 01:31:00
Перевод: Не требуется
Cубтитры: нет
Оригинальная аудиодорожка: русский
Режиссер: Павел Боголюбов
В ролях:
Лидия Ашрапова, Кененбай Кожабеков, Мулюк Суртубаев, Варвара Сошальская, Анатолий Алексеев, Сабира Майканова, А. Мухамедьяров, Канабек Байсеитов, Игорь Боголюбов, Сайфулла Тельгараев, Константин Старостин, Бикен Римова, Амина Умурзакова, Д. Таялиева, Тамара Думная, Серке (Сералы) Кожамкулов...
Полный список актёров
Описание:
Молодой колхозный коневод Айдар и старшая табунщица конезавода Галия давно любят друг друга. Случается так, что из-за недоразумения между молодыми людьми возникает размолвка. Это обстоятельство пытается использовать заведующий магазином Ангарбай, который не прочь стать женихом Галии.
Айдар мечтает завести в своем колхозе племенных породистых лошадей. Но председатель колхоза, его отец, отказывается выделить средства. Стремясь убедить несговорчивого папашу в том, что колхозные лошади действительно плохи, Айдар решает на скачках уступить первенство Галие.
Девушка, в свою очередь, придерживает коня, чтобы дать возможность отличиться возлюбленному и по старому обычаю получить от него в награду поцелуй. Но напрасны старания девушки. Айдар все же приходит последним. Поражение Айдара заставляет его отца раскошелиться на покупку племенных коней. Однако молодой коневод надолго теряет расположение любимой девушки.
После ряда случайностей недоразумение между любимыми улаживается, фильм заканчивается веселым свадебным праздником.





Источник: DVB
Качество видео: SATRip
Формат видео: AVI
Видео: 640x480 (4:3), 25 fps, XviD ~ 1006 kbps avg, 0.131 bit/pixel
Аудио: 48 kHz, MP3 2.0, 128 kbps
Раздача от:
Общее
Полное имя : Devushka-dzhigit.1955.SATRip-745_[New-team]_by_AVP_Studio.avi
Формат : AVI
Формат/Информация : Audio Video Interleave
Размер файла : 745 Мбайт
Продолжительность : 1 ч. 31 м.
Общий поток : 1144 Кбит/сек
Программа кодирования : VirtualDubMod 1.5.10.3 | www.virtualdub-fr.org || (build 2550/release)
Библиотека кодирования : VirtualDubMod build 2550/release
Видео
Идентификатор : 0
Формат : MPEG-4 Visual
Профиль формата : Advanced Simple@L5
Параметр BVOP формата : 1
Параметр QPel формата : Нет
Параметр GMC формата : Без точки перехода
Параметр матрицы формата : Выборочная
Идентификатор кодека : XVID
Идентификатор кодека/Подсказка : XviD
Продолжительность : 1 ч. 31 м.
Битрейт : 1006 Кбит/сек
Ширина : 640 пикселей
Высота : 480 пикселей
Соотношение сторон : 4:3
Частота кадров : 25,000 кадров/сек
Цветовое пространство : YUV
Субдискретизация насыщенности : 4:2:0
Битовая глубина : 8 бит
Тип развёртки : Прогрессивная
Метод сжатия : С потерями
Бит/(Пиксели*Кадры) : 0.131
Размер потока : 655 Мбайт (88%)
Библиотека кодирования : XviD 1.2.1 (UTC 2008-12-04)
Аудио
Идентификатор : 1
Формат : MPEG Audio
Версия формата : Version 1
Профиль формата : Layer 3
Идентификатор кодека : 55
Идентификатор кодека/Подсказка : MP3
Продолжительность : 1 ч. 31 м.
Вид битрейта : Постоянный
Битрейт : 128 Кбит/сек
Каналы : 2 канала
Частота : 48,0 КГц
Метод сжатия : С потерями
Размер потока : 83,3 Мбайт (11%)
Выравнивание : Соединение по промежуткам
Продолжительность промежутка : 40 мс. (1,00 видеокадр)
Время предзагрузки промежутка : 504 мс.
Библиотека кодирования : LAME3.99r
Настройки программы : -m s -V 4 -q 2 -lowpass 17 -b 128





   Похожие торренты   Торрент   Размер 
В этой теме нет новых непрочитанных сообщений. Девушка джигит (1955) SATRip-AVC от New-Team

22 | 2

1.09 ГБ

В этой теме нет новых непрочитанных сообщений. Девушка джигит (1955) SATRip от New-Team

6 | 3

1.09 ГБ

В этой теме нет новых непрочитанных сообщений. Девушка-джигит (1955) SATRip

3 | 3

1.23 ГБ

В этой теме нет новых непрочитанных сообщений. Сын (1955) SATRip от New-Team

10 | 4

1.09 ГБ

В этой теме нет новых непрочитанных сообщений. Сын (1955) SATRip от New-Team

3 | 4

744.6 МБ

В этой теме нет новых непрочитанных сообщений. Сын (1955) SATRip-AVC от New-Team

16 | 3

1.09 ГБ

В этой теме нет новых непрочитанных сообщений. Вольница (1955) SATRip от New-Team

16 | 3

1.46 ГБ




Вы не можете начинать темы
Вы не можете отвечать на сообщения
Вы не можете редактировать свои сообщения
Вы не можете удалять свои сообщения
Вы не можете добавлять вложения

Перейти:  
Для Мосгорсуда, Роскомнадзора и рекламодателей: mosgorsud-torrent[собачка]yandex.ru
 Вход
ppkBB3cker v.2 © 2008-2014 @ PPK
[ Time : 0.042s | 15 Queries | GZIP : Off ]

Торрент трекер RUTOR.IN, Не можете зайти на rutor.org? Какой новый адрес рутор? Какое зеркало рутор? Не работает rutor.org и зеркала? Тогда наш торрент специально для вас. Rutor.in неофициальное зеркало rutor. В случае если у Вас заблокирован rutor или вдруг Вы не можете на него зайти, то Вы без труда сможете скачать бесплатно и без рекламы последние новинки кино, игр, сериалов и прочего у нас, на Rutor.in. Не нужно использовать прокси, чтобы зайти на рутор, достаточно воспользоваться нашим ресурсом. Все новые фильмы, игры, сериалы, книги и музыка за 2013 и 2014 годы через торрент бесплатно. Скачивайте фильмы в хорошем качестве, игры для пк, xbox, playstation без регистрации. У нас вы найдете новые Зарубежные сериалы и Русские сериалы 2013, 2014, 2015 годов. Оставайтесь с нами, качайте любимые фильмы, игры, сериалы, книги и музыку.